VERSION	0.00.00	1.03.00
FES_MODE	0
BPM_DEF	127.000	127.000	127.000	127.000
MET_DEF	4	4
RESOLUTION	384
CLK_DEF	384
COMPATIBLE_CODE	MA2

BPM	0	0	127.000
MET	0	0	4	4

HLD	2	0	1	384
HLD	3	0	3	384
HLD	4	0	5	384
HLD	5	0	7	384
HLD	6	0	6	384
TAP	6	96	5
TAP	6	288	5
HLD	7	0	3	384
TAP	7	96	2
TAP	7	288	2
HLD	8	0	0	384
TAP	8	96	7
TAP	8	288	7
HLD	9	0	1	384
TAP	9	96	2
TAP	9	288	2
TAP	10	0	0
TAP	10	48	0
TAP	10	96	7
TAP	10	144	7
TAP	10	192	6
TAP	10	240	6
TAP	10	288	5
TAP	10	336	5
TAP	11	0	7
TAP	11	48	0
TAP	11	96	1
TAP	11	144	2
TAP	11	192	3
TAP	11	192	4
TAP	11	240	5
TAP	11	240	6
BRK	11	288	0
BRK	11	288	7
STR	12	0	7
SCR	12	0	7	96	48	2
TAP	12	192	7
TAP	12	216	6
HLD	12	264	5	120
STR	13	0	4
SCL	13	0	4	96	48	1
TAP	13	192	4
TAP	13	216	5
HLD	13	264	6	120
STR	14	0	7
SCR	14	0	7	96	48	2
TAP	14	192	7
TAP	14	216	6
HLD	14	264	5	120
HLD	15	0	4	144
TAP	15	72	2
HLD	15	144	6	96
HLD	15	240	0	144
STR	16	0	2
SI_	16	0	2	96	48	7
TAP	16	192	7
TAP	16	216	7
HLD	16	264	6	120
TAP	16	336	5
STR	17	0	5
SI_	17	0	5	96	48	1
TAP	17	192	1
TAP	17	216	1
HLD	17	264	2	120
TAP	17	336	3
STR	18	0	3
SI_	18	0	3	96	48	7
TAP	18	192	7
TAP	18	216	7
HLD	18	264	6	120
HLD	19	0	4	72
TAP	19	72	2
HLD	19	144	0	144
HLD	19	144	1	144
TAP	20	0	1
TAP	20	48	2
TAP	20	96	3
TAP	20	192	1
TAP	20	240	0
TAP	20	288	7
TAP	21	0	0
TAP	21	48	1
TAP	21	96	2
TAP	21	192	0
TAP	21	240	7
TAP	21	288	6
HLD	22	0	0	80
TAP	22	80	1
TAP	22	96	2
HLD	22	192	6	80
TAP	22	272	5
TAP	22	288	4
HLD	23	0	1	80
TAP	23	80	2
TAP	23	96	3
HLD	23	192	7	80
TAP	23	272	6
TAP	23	288	5
TAP	24	0	7
TAP	24	48	0
TAP	24	96	1
TAP	24	192	7
TAP	24	240	6
TAP	24	288	5
TAP	25	0	6
TAP	25	48	7
TAP	25	96	0
TAP	25	192	6
TAP	25	240	5
TAP	25	288	4
HLD	26	0	7	80
TAP	26	80	0
TAP	26	96	1
HLD	26	192	6	80
TAP	26	272	5
TAP	26	288	4
HLD	27	0	0	80
TAP	27	80	1
TAP	27	96	2
HLD	27	192	1	80
TAP	27	272	0
TAP	27	288	7
HLD	28	0	6	288
STR	28	288	5
SI_	28	288	5	96	192	1
HLD	30	0	1	384
HLD	31	0	2	240
TAP	31	240	0
TAP	31	288	7
HLD	31	336	6	336
STR	32	288	7
SCR	32	288	7	96	192	2
TAP	34	0	0
TAP	34	48	7
TAP	34	96	6
TAP	34	144	5
TAP	34	192	4
TAP	34	240	3
TAP	34	288	2
TAP	34	336	1
TAP	35	0	0
TAP	35	48	2
TAP	35	96	4
TAP	35	144	6
TAP	35	192	3
TAP	35	192	5
TAP	35	240	2
TAP	35	240	4
BRK	35	288	1
BRK	35	288	3
BRK	35	336	0
BRK	35	336	2
TAP	36	0	0
TAP	36	48	0
TAP	36	80	1
TAP	36	96	2
TAP	36	144	2
TAP	36	192	7
TAP	36	240	7
TAP	36	272	6
TAP	36	288	5
TAP	36	336	5
TAP	37	0	3
TAP	37	48	3
TAP	37	80	4
TAP	37	96	5
TAP	37	144	5
TAP	37	192	7
TAP	37	240	7
TAP	37	272	0
TAP	37	288	1
TAP	37	336	1
TAP	38	0	3
TAP	38	48	3
TAP	38	80	2
TAP	38	96	1
TAP	38	144	1
TAP	38	192	7
TAP	38	240	7
TAP	38	272	6
TAP	38	288	5
TAP	38	336	5
HLD	39	0	6	72
HLD	39	72	7	72
HLD	39	144	1	96
HLD	39	240	3	145
TAP	40	0	2
TAP	40	48	2
TAP	40	80	1
TAP	40	96	0
TAP	40	144	0
TAP	40	176	7
TAP	40	192	0
TAP	40	240	0
TAP	40	272	1
TAP	40	288	2
BRK	40	336	2
TAP	41	0	2
TAP	41	48	2
TAP	41	80	1
TAP	41	96	0
TAP	41	144	0
TAP	41	176	7
TAP	41	192	6
TAP	41	240	6
TAP	41	272	5
TAP	41	288	4
BRK	41	336	4
TAP	42	0	7
TAP	42	48	7
TAP	42	80	1
TAP	42	96	3
TAP	42	144	3
TAP	42	176	4
TAP	42	192	6
TAP	42	240	6
TAP	42	272	7
TAP	42	288	1
BRK	42	336	1
HLD	43	0	7	72
HLD	43	72	5	72
HLD	43	144	3	144
STR	43	288	2
SI_	43	288	2	96	96	7

T_REC_TAP	158
T_REC_BRK	9
T_REC_XTP	0
T_REC_HLD	39
T_REC_XHO	0
T_REC_STR	9
T_REC_BST	0
T_REC_XST	0
T_REC_TTP	0
T_REC_THO	0
T_REC_SLD	9
T_REC_ALL	224
T_NUM_TAP	167
T_NUM_BRK	9
T_NUM_HLD	39
T_NUM_SLD	9
T_NUM_ALL	224
T_JUDGE_TAP	176
T_JUDGE_HLD	157
T_JUDGE_SLD	9
T_JUDGE_ALL	342
TTM_EACHPAIRS	8
TTM_SCR_TAP	83500
TTM_SCR_BRK	23400
TTM_SCR_HLD	39000
TTM_SCR_SLD	13500
TTM_SCR_ALL	159400
TTM_SCR_S	153750
TTM_SCR_SS	158500
TTM_RAT_ACV	10056

