VERSION	0.00.00	1.03.00
FES_MODE	0
BPM_DEF	127.000	127.000	127.000	127.000
MET_DEF	4	4
RESOLUTION	384
CLK_DEF	384
COMPATIBLE_CODE	MA2

BPM	0	0	127.000
MET	0	0	4	4

HLD	2	0	2	288
HLD	3	0	4	288
HLD	4	0	6	288
HLD	5	0	0	288
TAP	6	0	7
TAP	6	96	7
TAP	6	192	6
TAP	6	288	6
TAP	7	0	5
TAP	7	96	5
TAP	7	192	4
TAP	7	288	4
TAP	8	0	3
TAP	8	96	3
TAP	8	192	2
TAP	8	288	2
TAP	9	0	1
TAP	9	96	1
TAP	9	192	0
TAP	9	288	0
STR	10	0	7
SI_	10	0	7	96	96	2
STR	11	0	3
SI_	11	0	3	96	96	6
BRK	11	288	7
TAP	12	0	0
HLD	12	96	1	96
TAP	12	192	2
HLD	12	264	3	120
HLD	13	96	1	96
TAP	13	192	0
HLD	13	264	7	120
HLD	14	96	5	96
TAP	14	192	4
HLD	14	264	3	120
HLD	15	0	6	72
HLD	15	72	7	72
TAP	15	144	0
HLD	15	240	1	144
TAP	16	0	0
HLD	16	96	7	96
TAP	16	192	6
HLD	16	264	5	120
HLD	17	96	7	96
TAP	17	192	0
HLD	17	264	1	120
HLD	18	96	3	96
TAP	18	192	4
HLD	18	264	5	120
TAP	19	0	6
TAP	19	72	0
TAP	19	72	7
HLD	19	144	0	144
HLD	19	144	1	144
TAP	20	0	7
TAP	20	96	7
TAP	20	192	5
TAP	20	288	5
TAP	21	0	3
TAP	21	96	3
TAP	21	192	1
TAP	21	288	1
HLD	22	0	2	192
HLD	22	192	3	192
HLD	23	0	4	192
HLD	23	192	5	192
TAP	24	0	6
TAP	24	96	7
TAP	24	192	6
TAP	24	288	6
TAP	25	0	3
TAP	25	96	2
TAP	25	192	3
TAP	25	288	3
HLD	26	0	4	192
HLD	26	192	5	192
HLD	27	0	6	192
HLD	27	192	7	192
STR	28	0	0
SI_	28	0	0	96	192	3
STR	30	0	4
SI_	30	0	4	96	192	7
HLD	31	336	0	336
HLD	32	288	1	96
TAP	33	0	2
HLD	33	72	2	216
HLD	34	0	0	336
TAP	34	240	7
TAP	34	288	7
HLD	34	336	7	336
BRK	35	288	6
HLD	36	0	0	96
TAP	36	96	1
HLD	36	192	6	96
TAP	36	288	5
HLD	37	0	3	96
TAP	37	96	2
HLD	37	192	3	96
TAP	37	288	4
HLD	38	0	6	96
TAP	38	96	7
HLD	38	192	0	96
TAP	38	288	1
HLD	39	0	7	96
TAP	39	96	6
HLD	39	192	7	96
TAP	39	288	0
HLD	40	0	1	96
TAP	40	96	2
HLD	40	192	5	96
TAP	40	288	4
HLD	41	0	2	96
TAP	41	96	3
HLD	41	192	6	96
TAP	41	288	5
HLD	42	0	0	96
TAP	42	96	1
HLD	42	192	0	96
TAP	42	288	7
HLD	43	0	6	288
STR	43	288	5
SI_	43	288	5	96	96	1

T_REC_TAP	61
T_REC_BRK	2
T_REC_XTP	0
T_REC_HLD	49
T_REC_XHO	0
T_REC_STR	5
T_REC_BST	0
T_REC_XST	0
T_REC_TTP	0
T_REC_THO	0
T_REC_SLD	5
T_REC_ALL	122
T_NUM_TAP	66
T_NUM_BRK	2
T_NUM_HLD	49
T_NUM_SLD	5
T_NUM_ALL	122
T_JUDGE_TAP	68
T_JUDGE_HLD	161
T_JUDGE_SLD	5
T_JUDGE_ALL	234
TTM_EACHPAIRS	2
TTM_SCR_TAP	33000
TTM_SCR_BRK	5200
TTM_SCR_HLD	49000
TTM_SCR_SLD	7500
TTM_SCR_ALL	94700
TTM_SCR_S	91700
TTM_SCR_SS	94500
TTM_RAT_ACV	10021

