VERSION	0.00.00	1.03.00
FES_MODE	0
BPM_DEF	159.000	159.000	159.000	159.000
MET_DEF	4	4
RESOLUTION	384
CLK_DEF	384
COMPATIBLE_CODE	MA2

BPM	0	0	159.000
MET	0	0	4	4

STR	3	0	0
SI_	3	0	0	96	192	4
TAP	3	0	6
TAP	4	0	2
STR	4	0	5
SI_	4	0	5	96	192	1
TAP	5	0	2
STR	5	0	3
SI_	5	0	3	96	48	7
STR	5	192	4
SI_	5	192	4	96	48	0
TAP	6	0	0
TAP	6	0	1
TAP	6	72	4
TAP	6	72	6
TAP	6	144	1
TAP	6	144	3
TAP	6	216	6
TAP	6	216	7
TAP	6	240	6
TAP	6	240	7
BRK	6	288	0
BRK	6	288	5
HLD	7	0	1	72
TAP	7	0	4
TAP	7	72	2
TAP	7	96	1
TAP	7	144	6
TAP	7	168	5
TAP	7	192	3
TAP	7	192	4
TAP	7	240	0
TAP	7	264	1
TAP	7	288	2
TAP	7	288	3
TAP	7	336	5
TAP	8	0	3
HLD	8	0	6	72
TAP	8	72	4
TAP	8	96	6
TAP	8	144	0
TAP	8	144	7
TAP	8	192	1
TAP	8	192	3
TAP	8	240	2
TAP	8	288	4
TAP	8	288	5
TAP	8	336	6
TAP	9	0	0
TAP	9	0	7
TAP	9	48	1
TAP	9	72	0
TAP	9	96	3
TAP	9	144	4
TAP	9	168	2
TAP	9	192	5
TAP	9	240	6
TAP	9	264	7
TAP	9	288	6
TAP	9	336	0
TAP	10	0	1
HLD	10	0	4	72
TAP	10	72	3
TAP	10	96	4
TAP	10	144	6
TAP	10	168	5
TAP	10	192	6
TAP	10	216	7
TAP	10	240	0
BRK	10	288	1
BRK	10	288	3
BRK	10	336	2
BRK	10	336	4
HLD	11	0	7	72
TAP	11	72	5
TAP	11	96	7
TAP	11	144	0
TAP	11	168	1
TAP	11	192	2
TAP	11	192	3
TAP	11	240	6
TAP	11	264	5
TAP	11	288	3
TAP	11	288	4
TAP	11	336	1
HLD	12	0	0	72
TAP	12	0	5
TAP	12	72	7
TAP	12	96	0
TAP	12	144	5
TAP	12	168	4
TAP	12	216	2
TAP	12	240	3
TAP	12	288	1
TAP	12	288	4
TAP	12	336	0
TAP	12	336	5
TAP	13	0	6
STR	13	0	7
SCL	13	0	7	96	48	4
TAP	13	48	2
TAP	13	72	2
STR	13	96	7
SCR	13	96	7	96	48	2
TAP	13	144	3
TAP	13	168	3
STR	13	192	7
SI_	13	192	7	96	48	3
TAP	13	240	4
TAP	13	264	4
BRK	13	288	7
HLD	14	0	1	48
HLD	14	0	3	48
HLD	14	72	2	48
HLD	14	72	6	48
TAP	14	144	0
TAP	14	144	4
STR	14	192	7
SI_	14	192	7	96	48	2
SI_	14	192	7	96	48	4
BRK	14	288	7
STR	15	0	0
SI_	15	0	0	96	48	4
TAP	15	0	6
STR	15	48	4
SI_	15	48	4	96	48	0
TAP	15	96	0
TAP	15	144	7
TAP	15	168	6
STR	15	192	5
SI_	15	192	5	96	48	1
TAP	15	240	1
TAP	15	264	2
TAP	15	288	3
TAP	15	336	3
STR	16	0	0
SI_	16	0	0	96	48	4
TAP	16	0	4
TAP	16	48	3
TAP	16	96	2
TAP	16	144	1
STR	16	192	0
SI_	16	192	0	96	48	4
TAP	16	192	4
TAP	16	240	4
TAP	16	264	5
STR	16	288	6
SI_	16	288	6	96	48	2
TAP	16	336	7
BRK	17	0	2
BRK	17	0	6
TAP	17	96	0
TAP	17	120	7
TAP	17	168	1
TAP	17	168	6
TAP	17	216	0
TAP	17	240	1
TAP	17	264	2
TAP	17	288	3
TAP	17	288	4
TAP	17	312	5
TAP	17	336	6
TAP	17	360	7
TAP	18	0	1
TAP	18	24	0
TAP	18	48	2
TAP	18	72	2
TAP	18	96	5
TAP	18	120	4
TAP	18	144	6
TAP	18	168	6
TAP	18	192	2
TAP	18	216	3
TAP	18	240	1
BRK	18	288	0
BRK	18	288	5
TAP	19	0	1
STR	19	0	7
SI_	19	0	7	96	48	3
TAP	19	24	6
STR	19	48	5
SI_	19	48	5	96	48	0
TAP	19	96	7
TAP	19	144	5
STR	19	192	2
SI_	19	192	2	96	48	7
STR	19	240	7
SI_	19	240	7	96	48	3
TAP	19	264	6
TAP	19	288	5
TAP	19	336	3
STR	20	0	4
SI_	20	0	4	96	48	0
TAP	20	48	1
TAP	20	72	2
TAP	20	96	3
TAP	20	144	2
STR	20	192	0
SCR	20	192	0	96	48	3
TAP	20	192	1
TAP	20	240	6
TAP	20	264	5
STR	20	288	4
SCL	20	288	4	96	48	1
TAP	20	336	6
BRK	21	0	0
TAP	21	96	7
TAP	21	120	0
TAP	21	168	1
TAP	21	168	6
TAP	21	216	3
TAP	21	240	2
TAP	21	264	1
TAP	21	288	0
TAP	21	288	7
TAP	21	312	6
TAP	21	336	5
TAP	21	360	4
TAP	22	0	1
TAP	22	24	0
TAP	22	48	2
TAP	22	72	4
TAP	22	96	3
TAP	22	120	6
TAP	22	144	7
TAP	22	168	5
STR	22	192	0
SF_	22	192	0	96	48	4
TAP	22	288	0
BST	23	0	2
SXR	23	0	2	96	192	7
BST	23	0	6
SXR	23	0	6	96	288	3
STR	24	0	1
SCR	24	0	1	96	192	0
HLD	24	96	7	192
STR	25	0	1
SLR	25	0	1	96	144	7
STR	25	0	6
SLL	25	0	6	96	144	0
TAP	25	336	6
TAP	25	360	7
TAP	26	0	6
TAP	26	72	1
TAP	26	72	3
TAP	26	144	4
TAP	26	144	6
TAP	26	216	0
TAP	26	216	1
TAP	26	240	0
TAP	26	240	1
BRK	26	288	2
BRK	26	288	7
TAP	27	0	3
HLD	27	0	6	72
TAP	27	72	5
TAP	27	96	6
TAP	27	144	1
TAP	27	168	2
TAP	27	192	3
TAP	27	192	4
TAP	27	240	7
TAP	27	264	6
TAP	27	288	4
TAP	27	288	5
TAP	27	336	2
HLD	28	0	1	72
TAP	28	0	4
TAP	28	72	3
TAP	28	96	1
TAP	28	144	0
TAP	28	144	7
TAP	28	192	4
TAP	28	192	6
TAP	28	240	5
TAP	28	288	2
TAP	28	288	3
TAP	28	336	1
TAP	29	0	0
TAP	29	0	7
TAP	29	48	6
TAP	29	72	7
TAP	29	96	4
TAP	29	144	3
TAP	29	168	5
TAP	29	192	2
TAP	29	240	1
TAP	29	264	0
TAP	29	288	1
TAP	29	336	7
HLD	30	0	3	72
TAP	30	0	6
TAP	30	72	4
TAP	30	96	3
TAP	30	144	2
TAP	30	168	1
TAP	30	192	2
TAP	30	216	3
TAP	30	240	4
BRK	30	288	5
BST	30	288	7
SCL	30	288	7	96	48	3
SCR	30	288	7	96	48	3
BRK	30	336	0
BRK	30	336	6
BRK	31	96	1
BRK	31	96	5
TAP	31	144	7
TAP	31	168	6
TAP	31	192	4
TAP	31	192	5
TAP	31	240	1
TAP	31	264	2
TAP	31	288	3
TAP	31	288	4
TAP	31	336	6
TAP	32	0	3
HLD	32	0	7	72
TAP	32	72	0
TAP	32	96	7
TAP	32	144	2
TAP	32	168	3
TAP	32	216	5
TAP	32	240	4
TAP	32	288	3
TAP	32	288	6
TAP	32	336	2
TAP	32	336	7
STR	33	0	0
SCR	33	0	0	96	48	3
TAP	33	0	1
TAP	33	48	5
TAP	33	72	5
STR	33	96	0
SCL	33	96	0	96	48	5
TAP	33	144	4
TAP	33	168	4
STR	33	192	0
SI_	33	192	0	96	48	4
TAP	33	240	3
TAP	33	264	3
BRK	33	288	0
HLD	34	0	4	48
HLD	34	0	6	48
HLD	34	72	1	48
HLD	34	72	5	48
HLD	34	144	3	48
HLD	34	144	7	48
HLD	34	216	0	48
HLD	34	216	4	48
BRK	34	288	2
BRK	34	288	6
TAP	35	0	1
STR	35	0	7
SI_	35	0	7	96	48	3
STR	35	48	3
SI_	35	48	3	96	48	7
TAP	35	96	7
TAP	35	144	0
TAP	35	168	1
STR	35	192	2
SI_	35	192	2	96	48	6
TAP	35	240	6
TAP	35	264	5
TAP	35	288	4
TAP	35	336	4
TAP	36	0	3
STR	36	0	7
SI_	36	0	7	96	48	3
TAP	36	48	4
TAP	36	96	5
TAP	36	144	6
TAP	36	192	3
STR	36	192	7
SI_	36	192	7	96	48	3
TAP	36	240	3
TAP	36	264	2
STR	36	288	1
SI_	36	288	1	96	48	5
TAP	36	336	0
BRK	37	0	1
BRK	37	0	5
TAP	37	96	7
TAP	37	120	0
TAP	37	168	1
TAP	37	168	6
TAP	37	216	7
TAP	37	240	6
TAP	37	264	5
TAP	37	288	3
TAP	37	288	4
TAP	37	312	2
TAP	37	336	1
TAP	37	360	0
TAP	38	0	6
TAP	38	24	7
TAP	38	48	5
TAP	38	72	5
TAP	38	96	2
TAP	38	120	3
TAP	38	144	1
TAP	38	168	1
TAP	38	192	5
TAP	38	216	4
TAP	38	240	6
BRK	38	288	2
BRK	38	288	7
STR	39	0	0
SI_	39	0	0	96	48	4
TAP	39	0	6
TAP	39	24	1
STR	39	48	2
SI_	39	48	2	96	48	7
TAP	39	96	0
TAP	39	144	2
STR	39	192	5
SI_	39	192	5	96	48	0
STR	39	240	0
SI_	39	240	0	96	48	4
TAP	39	264	1
TAP	39	288	2
TAP	39	336	4
STR	40	0	3
SI_	40	0	3	96	48	7
TAP	40	48	6
TAP	40	72	5
TAP	40	96	4
TAP	40	144	5
TAP	40	192	6
STR	40	192	7
SCL	40	192	7	96	48	4
TAP	40	240	1
TAP	40	264	2
STR	40	288	3
SCR	40	288	3	96	48	6
TAP	40	336	1
BRK	41	0	7
TAP	41	96	0
TAP	41	120	7
TAP	41	168	1
TAP	41	168	6
TAP	41	216	4
TAP	41	240	5
TAP	41	264	6
TAP	41	288	0
TAP	41	288	7
TAP	41	312	1
TAP	41	336	2
TAP	41	360	3
TAP	42	0	6
TAP	42	24	7
TAP	42	48	5
TAP	42	72	3
TAP	42	96	4
TAP	42	120	1
TAP	42	144	0
TAP	42	168	2
STR	42	192	7
SF_	42	192	7	96	48	3
TAP	42	288	7
STR	43	0	1
SI_	43	0	1	96	48	4
STR	43	0	5
SI_	43	0	5	96	48	0
TAP	43	48	0
TAP	43	48	4
TAP	43	96	1
TAP	43	96	5
TAP	43	192	0
TAP	43	192	4
TAP	43	216	3
TAP	43	216	7
TAP	43	240	2
TAP	43	240	6
BRK	43	264	1
BRK	43	264	5
TAP	44	0	0
TAP	44	0	6
TAP	44	48	1
TAP	44	48	7
TAP	44	96	2
TAP	44	120	3
TAP	44	168	1
TAP	44	168	4
TAP	44	216	6
TAP	44	240	5
TAP	44	264	4
TAP	44	288	5
TAP	44	312	6
TAP	44	336	7
TAP	44	360	0
STR	45	0	1
SI_	45	0	1	96	48	4
STR	45	0	3
SI_	45	0	3	96	48	7
TAP	45	48	2
TAP	45	48	4
TAP	45	96	1
TAP	45	96	3
TAP	45	192	3
TAP	45	192	7
TAP	45	216	2
TAP	45	216	6
TAP	45	240	1
TAP	45	240	5
BRK	45	264	0
BRK	45	264	4
TAP	46	0	2
TAP	46	24	3
TAP	46	48	4
HLD	46	72	5	48
TAP	46	120	7
TAP	46	144	6
TAP	46	168	7
TAP	46	192	0
TAP	46	192	5
TAP	46	240	1
TAP	46	240	6
TAP	46	288	7
TAP	46	312	7
STR	47	0	2
SI_	47	0	2	96	48	7
STR	47	0	6
SI_	47	0	6	96	48	3
TAP	47	48	3
TAP	47	48	7
TAP	47	96	2
TAP	47	96	6
TAP	47	192	3
TAP	47	192	7
TAP	47	216	0
TAP	47	216	4
TAP	47	240	1
TAP	47	240	5
BRK	47	264	2
BRK	47	264	6
TAP	48	0	1
TAP	48	0	7
TAP	48	48	0
TAP	48	48	6
TAP	48	96	5
TAP	48	120	4
TAP	48	168	3
TAP	48	168	6
TAP	48	216	5
TAP	48	240	4
TAP	48	264	3
TAP	48	288	2
TAP	48	312	1
TAP	48	336	0
TAP	48	360	7
STR	49	0	4
SI_	49	0	4	96	48	0
STR	49	0	6
SI_	49	0	6	96	48	3
TAP	49	48	3
TAP	49	48	5
TAP	49	96	4
TAP	49	96	6
TAP	49	192	0
TAP	49	192	4
TAP	49	216	1
TAP	49	216	5
TAP	49	240	2
TAP	49	240	6
BRK	49	264	3
BRK	49	264	7
TAP	50	0	0
TAP	50	0	7
TAP	50	24	6
TAP	50	48	5
TAP	50	72	4
TAP	50	96	3
TAP	50	96	7
TAP	50	120	0
TAP	50	144	1
TAP	50	168	2
STR	50	192	3
SI_	50	192	3	96	48	0
STR	50	192	7
SI_	50	192	7	96	48	4
TAP	51	0	5
TAP	51	24	1
TAP	51	48	7
TAP	51	72	3
TAP	51	120	4
TAP	51	120	6
TAP	51	168	0
TAP	51	168	2
TAP	51	216	3
TAP	51	216	7
TAP	51	240	2
TAP	51	240	6
TAP	51	264	1
TAP	51	264	5
TAP	51	288	0
TAP	51	288	4
TAP	51	300	3
TAP	51	312	2
TAP	51	324	1
TAP	51	336	0
TAP	51	348	7
TAP	51	360	6
TAP	51	372	5
TAP	52	0	3
TAP	52	0	4
HLD	52	120	2	360
HLD	52	120	7	360

T_REC_TAP	435
T_REC_BRK	36
T_REC_XTP	0
T_REC_HLD	25
T_REC_XHO	0
T_REC_STR	52
T_REC_BST	3
T_REC_XST	0
T_REC_TTP	0
T_REC_THO	0
T_REC_SLD	57
T_REC_ALL	608
T_NUM_TAP	487
T_NUM_BRK	39
T_NUM_HLD	25
T_NUM_SLD	57
T_NUM_ALL	608
T_JUDGE_TAP	526
T_JUDGE_HLD	51
T_JUDGE_SLD	57
T_JUDGE_ALL	634
TTM_EACHPAIRS	128
TTM_SCR_TAP	243500
TTM_SCR_BRK	101400
TTM_SCR_HLD	25000
TTM_SCR_SLD	85500
TTM_SCR_ALL	455400
TTM_SCR_S	438000
TTM_SCR_SS	451500
TTM_RAT_ACV	10086

