VERSION	0.00.00	1.03.00
FES_MODE	0
BPM_DEF	159.000	159.000	159.000	159.000
MET_DEF	4	4
RESOLUTION	384
CLK_DEF	384
COMPATIBLE_CODE	MA2

BPM	0	0	159.000
MET	0	0	4	4

STR	3	0	0
SI_	3	0	0	96	192	4
HLD	3	0	6	384
STR	4	0	4
SI_	4	0	4	96	192	1
HLD	4	288	7	384
STR	5	0	6
SCL	5	0	6	96	192	3
TAP	6	0	1
TAP	6	0	3
TAP	6	72	2
TAP	6	72	6
TAP	6	144	0
TAP	6	144	4
TAP	6	216	7
TAP	6	240	6
TAP	6	288	7
TAP	6	336	0
TAP	7	0	1
TAP	7	72	2
TAP	7	96	3
TAP	7	144	7
TAP	7	168	5
TAP	7	192	4
TAP	7	240	6
TAP	7	288	0
TAP	7	312	1
TAP	7	336	2
TAP	8	0	1
TAP	8	72	7
TAP	8	96	6
TAP	8	144	4
TAP	8	168	3
TAP	8	192	2
TAP	8	240	3
TAP	8	264	4
TAP	8	288	5
TAP	8	336	5
TAP	9	0	7
TAP	9	72	0
TAP	9	96	1
TAP	9	144	7
TAP	9	168	6
TAP	9	192	4
TAP	9	240	5
TAP	9	264	6
TAP	9	288	7
TAP	9	336	2
TAP	10	0	3
TAP	10	72	1
TAP	10	96	0
TAP	10	144	6
TAP	10	168	5
TAP	10	192	6
TAP	10	216	7
TAP	10	240	0
BRK	10	288	1
BRK	10	288	3
BRK	10	336	2
BRK	10	336	4
TAP	11	0	7
TAP	11	72	6
TAP	11	96	5
TAP	11	144	3
TAP	11	168	2
TAP	11	192	3
TAP	11	240	4
TAP	11	288	6
TAP	11	312	7
TAP	11	336	0
TAP	12	0	2
TAP	12	48	5
TAP	12	72	4
TAP	12	96	3
TAP	12	144	0
TAP	12	168	1
TAP	12	216	7
TAP	12	240	7
TAP	12	288	6
TAP	12	336	5
TAP	13	0	6
TAP	13	48	0
TAP	13	72	0
TAP	13	144	1
TAP	13	192	2
TAP	13	240	3
TAP	13	264	2
STR	13	288	1
SCR	13	288	1	96	48	4
STR	14	0	7
SCR	14	0	7	96	48	2
STR	14	144	3
SI_	14	144	3	96	48	7
TAP	14	240	0
TAP	14	264	1
BRK	14	288	2
STR	15	0	0
SI_	15	0	0	96	24	3
TAP	15	0	7
TAP	15	48	6
TAP	15	96	5
TAP	15	144	7
TAP	15	168	0
TAP	15	192	1
TAP	15	240	0
TAP	15	288	7
TAP	15	336	6
TAP	15	360	5
STR	16	0	4
SI_	16	0	4	96	24	1
TAP	16	48	6
TAP	16	96	7
TAP	16	144	0
TAP	16	168	1
STR	16	192	2
SI_	16	192	2	96	48	6
TAP	16	240	6
TAP	16	264	5
STR	16	288	4
SI_	16	288	4	96	48	0
TAP	16	336	5
BRK	17	0	6
TAP	17	96	7
TAP	17	120	0
TAP	17	168	7
TAP	17	216	7
TAP	17	240	6
TAP	17	264	5
TAP	17	288	4
TAP	17	312	3
TAP	17	336	2
TAP	17	360	1
STR	18	0	0
SI_	18	0	0	96	48	4
STR	18	96	6
SI_	18	96	6	96	48	3
STR	18	192	1
SI_	18	192	1	96	48	4
TAP	19	0	3
STR	19	0	7
SI_	19	0	7	96	24	3
TAP	19	24	2
TAP	19	48	1
TAP	19	144	7
TAP	19	168	6
TAP	19	192	5
TAP	19	240	6
TAP	19	288	0
TAP	19	336	7
TAP	19	360	6
STR	20	0	5
SI_	20	0	5	96	48	0
STR	20	48	0
SI_	20	48	0	96	48	3
STR	20	192	7
SCL	20	192	7	96	48	4
TAP	20	240	1
TAP	20	264	2
STR	20	288	3
SCR	20	288	3	96	48	6
TAP	20	336	2
TAP	21	96	0
TAP	21	120	1
TAP	21	168	0
TAP	21	216	7
TAP	21	240	6
TAP	21	264	5
TAP	21	288	4
TAP	21	312	3
TAP	21	336	2
TAP	21	360	1
STR	22	0	0
SI_	22	0	0	96	48	4
STR	22	96	7
SI_	22	96	7	96	48	3
STR	22	192	0
SCL	22	192	0	96	48	5
STR	23	0	2
SI_	23	0	2	96	192	7
STR	23	0	6
SI_	23	0	6	96	288	3
STR	24	0	7
SCR	24	0	7	96	192	2
HLD	24	96	6	288
STR	25	0	5
SCL	25	0	5	96	192	2
TAP	26	0	0
TAP	26	0	2
TAP	26	72	1
TAP	26	72	5
TAP	26	144	3
TAP	26	144	7
TAP	26	216	0
TAP	26	240	1
TAP	26	288	7
TAP	26	336	6
TAP	27	0	1
TAP	27	72	2
TAP	27	96	4
TAP	27	144	3
TAP	27	168	2
TAP	27	192	1
TAP	27	240	7
TAP	27	288	0
TAP	27	312	1
TAP	27	336	2
TAP	28	0	1
TAP	28	72	7
TAP	28	96	5
TAP	28	144	6
TAP	28	168	7
TAP	28	192	0
TAP	28	240	7
TAP	28	264	6
TAP	28	288	5
TAP	28	336	1
TAP	29	0	2
TAP	29	72	1
TAP	29	96	7
TAP	29	144	0
TAP	29	168	1
TAP	29	192	2
TAP	29	240	0
TAP	29	264	7
TAP	29	288	6
TAP	29	336	0
TAP	30	0	2
TAP	30	72	5
TAP	30	96	3
TAP	30	144	2
TAP	30	168	1
TAP	30	192	2
TAP	30	216	3
TAP	30	240	4
BRK	30	288	5
BRK	30	288	7
BRK	30	336	0
BRK	30	336	6
TAP	31	0	7
TAP	31	72	6
TAP	31	96	4
TAP	31	144	5
TAP	31	168	6
TAP	31	192	7
TAP	31	240	1
TAP	31	288	3
TAP	31	312	4
TAP	31	336	5
TAP	32	0	4
TAP	32	48	3
TAP	32	72	2
TAP	32	96	1
TAP	32	144	7
TAP	32	168	6
TAP	32	216	7
TAP	32	240	7
TAP	32	288	0
TAP	32	336	2
TAP	33	0	4
TAP	33	48	3
TAP	33	72	3
TAP	33	144	1
TAP	33	192	7
TAP	33	240	5
TAP	33	264	4
STR	33	288	6
SCL	33	288	6	96	48	3
STR	34	0	0
SCL	34	0	0	96	48	5
STR	34	144	4
SI_	34	144	4	96	48	0
TAP	34	240	7
TAP	34	264	6
BRK	34	288	5
TAP	35	0	0
STR	35	0	7
SI_	35	0	7	96	24	4
TAP	35	48	1
TAP	35	96	2
TAP	35	144	0
TAP	35	168	7
TAP	35	192	6
TAP	35	240	7
TAP	35	288	0
TAP	35	336	1
TAP	35	360	2
STR	36	0	3
SI_	36	0	3	96	24	6
TAP	36	48	1
TAP	36	96	0
TAP	36	144	7
TAP	36	168	6
STR	36	192	5
SI_	36	192	5	96	48	1
TAP	36	240	1
TAP	36	264	2
STR	36	288	3
SI_	36	288	3	96	48	7
TAP	36	336	2
BRK	37	0	1
TAP	37	96	0
TAP	37	120	7
TAP	37	168	0
TAP	37	216	0
TAP	37	240	1
TAP	37	264	2
TAP	37	288	3
TAP	37	312	4
TAP	37	336	5
TAP	37	360	6
STR	38	0	7
SI_	38	0	7	96	48	3
STR	38	96	1
SI_	38	96	1	96	48	4
STR	38	192	6
SI_	38	192	6	96	48	3
STR	39	0	0
SI_	39	0	0	96	24	4
TAP	39	0	4
TAP	39	24	5
TAP	39	48	6
TAP	39	144	0
TAP	39	168	1
TAP	39	192	2
TAP	39	240	1
TAP	39	288	7
TAP	39	336	0
TAP	39	360	1
STR	40	0	2
SI_	40	0	2	96	48	7
STR	40	48	7
SI_	40	48	7	96	48	4
STR	40	192	0
SCR	40	192	0	96	48	3
TAP	40	240	6
TAP	40	264	5
STR	40	288	4
SCL	40	288	4	96	48	1
TAP	40	336	5
TAP	41	96	7
TAP	41	120	6
TAP	41	168	7
TAP	41	216	0
TAP	41	240	1
TAP	41	264	2
TAP	41	288	3
TAP	41	312	4
TAP	41	336	5
TAP	41	360	6
STR	42	0	7
SI_	42	0	7	96	48	3
STR	42	96	0
SI_	42	96	0	96	48	4
STR	42	192	7
SCR	42	192	7	96	48	2
STR	43	0	0
SI_	43	0	0	96	48	3
STR	43	48	3
SI_	43	48	3	96	48	6
TAP	43	192	7
TAP	43	216	0
TAP	43	240	1
BRK	43	264	2
TAP	44	0	0
TAP	44	48	7
TAP	44	96	0
TAP	44	120	1
TAP	44	168	0
TAP	44	216	6
TAP	44	240	5
TAP	44	264	4
TAP	44	288	5
TAP	44	312	6
TAP	44	336	7
TAP	44	360	0
STR	45	0	1
SI_	45	0	1	96	48	6
STR	45	48	6
SI_	45	48	6	96	48	3
TAP	45	192	4
TAP	45	216	5
TAP	45	240	6
BRK	45	264	7
TAP	46	0	0
TAP	46	24	1
TAP	46	48	0
TAP	46	72	1
TAP	46	120	0
TAP	46	144	7
TAP	46	168	6
TAP	46	192	5
TAP	46	240	6
TAP	46	288	7
TAP	46	312	7
STR	47	0	6
SI_	47	0	6	96	48	1
STR	47	48	1
SI_	47	48	1	96	48	4
TAP	47	192	3
TAP	47	216	2
TAP	47	240	1
BRK	47	264	0
TAP	48	0	6
TAP	48	48	4
TAP	48	96	2
TAP	48	120	1
TAP	48	168	1
TAP	48	216	2
TAP	48	240	3
TAP	48	264	4
TAP	48	288	5
TAP	48	312	6
TAP	48	336	7
TAP	48	360	0
STR	49	0	1
SI_	49	0	1	96	48	5
STR	49	48	5
SI_	49	48	5	96	48	2
TAP	49	192	4
TAP	49	216	5
TAP	49	240	6
BRK	49	264	7
TAP	50	0	7
TAP	50	24	6
TAP	50	48	5
TAP	50	72	4
TAP	50	96	7
TAP	50	120	0
TAP	50	144	1
TAP	50	168	2
TAP	50	192	3
TAP	51	0	0
TAP	51	24	7
TAP	51	48	0
TAP	51	72	7
TAP	51	120	6
TAP	51	168	5
TAP	51	216	6
TAP	51	240	7
TAP	51	264	0
TAP	51	288	1
TAP	51	336	7
TAP	51	360	6
HLD	52	120	2	360
HLD	52	120	7	360

T_REC_TAP	322
T_REC_BRK	16
T_REC_XTP	0
T_REC_HLD	5
T_REC_XHO	0
T_REC_STR	51
T_REC_BST	0
T_REC_XST	0
T_REC_TTP	0
T_REC_THO	0
T_REC_SLD	51
T_REC_ALL	445
T_NUM_TAP	373
T_NUM_BRK	16
T_NUM_HLD	5
T_NUM_SLD	51
T_NUM_ALL	445
T_JUDGE_TAP	389
T_JUDGE_HLD	38
T_JUDGE_SLD	51
T_JUDGE_ALL	478
TTM_EACHPAIRS	17
TTM_SCR_TAP	186500
TTM_SCR_BRK	41600
TTM_SCR_HLD	5000
TTM_SCR_SLD	76500
TTM_SCR_ALL	309600
TTM_SCR_S	298800
TTM_SCR_SS	308000
TTM_RAT_ACV	10051

