VERSION	0.00.00	1.03.00
FES_MODE	0
BPM_DEF	159.000	159.000	159.000	159.000
MET_DEF	4	4
RESOLUTION	384
CLK_DEF	384
COMPATIBLE_CODE	MA2

BPM	0	0	159.000
MET	0	0	4	4

HLD	3	0	5	672
HLD	4	0	2	672
HLD	5	0	7	528
TAP	6	0	5
TAP	6	72	2
STR	6	144	0
SI_	6	144	0	96	96	4
STR	6	192	7
SI_	6	192	7	96	96	3
TAP	7	0	2
TAP	7	48	7
TAP	7	96	2
TAP	7	144	0
TAP	7	168	1
TAP	7	192	0
TAP	7	240	2
TAP	7	288	7
TAP	8	0	5
TAP	8	48	0
TAP	8	96	5
TAP	8	144	7
TAP	8	168	6
TAP	8	192	7
TAP	8	240	5
TAP	8	288	0
TAP	9	0	3
TAP	9	48	6
TAP	9	96	3
TAP	9	144	5
TAP	9	168	4
TAP	9	192	5
TAP	9	240	3
TAP	9	288	6
TAP	10	0	4
TAP	10	48	1
TAP	10	96	4
TAP	10	144	2
TAP	10	168	3
TAP	10	192	2
TAP	10	240	5
TAP	10	264	4
TAP	10	288	5
TAP	10	336	2
TAP	10	360	3
TAP	11	0	2
TAP	11	48	7
TAP	11	96	2
TAP	11	144	0
TAP	11	168	1
TAP	11	192	0
TAP	11	240	2
TAP	11	288	7
TAP	12	0	5
TAP	12	48	0
TAP	12	96	5
TAP	12	144	7
TAP	12	168	6
TAP	12	192	7
TAP	12	240	5
TAP	12	288	0
TAP	13	0	3
TAP	13	48	6
TAP	13	96	3
TAP	13	144	4
TAP	13	168	3
TAP	13	192	4
TAP	13	240	1
TAP	13	288	4
TAP	13	336	3
TAP	13	360	4
TAP	14	0	3
TAP	14	72	4
STR	14	144	3
SI_	14	144	3	96	96	7
STR	14	192	4
SI_	14	192	4	96	96	0
TAP	15	0	2
TAP	15	48	0
TAP	15	96	2
TAP	15	144	7
TAP	15	168	0
TAP	15	192	5
TAP	15	240	7
TAP	15	288	5
TAP	15	336	0
TAP	15	360	7
TAP	16	0	2
TAP	16	48	4
TAP	16	96	3
TAP	16	144	5
TAP	16	192	1
TAP	16	240	7
TAP	16	288	0
TAP	16	336	6
HLD	17	0	7	96
TAP	17	96	1
HLD	17	192	0	96
TAP	17	288	6
HLD	18	0	7	96
TAP	18	48	1
HLD	18	96	0	96
TAP	18	144	6
STR	18	192	7
SI_	18	192	7	96	48	3
TAP	19	0	5
TAP	19	48	7
TAP	19	96	5
TAP	19	144	0
TAP	19	168	7
TAP	19	192	2
TAP	19	240	0
TAP	19	288	2
TAP	19	336	7
TAP	19	360	0
TAP	20	0	4
TAP	20	48	2
TAP	20	96	5
TAP	20	144	3
TAP	20	192	7
TAP	20	240	1
TAP	20	288	6
TAP	20	336	0
HLD	21	0	2	96
TAP	21	96	4
HLD	21	192	5	96
TAP	21	288	3
HLD	22	0	2	96
TAP	22	48	4
HLD	22	96	5	96
STR	22	144	3
SI_	22	144	3	96	96	7
HLD	22	192	2	96
HLD	23	0	5	672
HLD	24	0	2	672
HLD	25	0	7	528
TAP	26	0	5
TAP	26	72	2
STR	26	144	6
SI_	26	144	6	96	96	2
STR	26	192	1
SI_	26	192	1	96	96	5
TAP	27	0	0
TAP	27	48	1
TAP	27	96	2
TAP	27	144	1
TAP	27	168	1
TAP	27	192	7
TAP	27	240	6
TAP	27	288	5
TAP	27	336	6
TAP	27	360	6
TAP	28	0	1
TAP	28	48	2
TAP	28	96	3
TAP	28	144	2
TAP	28	168	3
TAP	28	192	6
TAP	28	240	5
TAP	28	288	4
TAP	28	336	5
TAP	28	360	4
TAP	29	0	2
TAP	29	48	3
TAP	29	96	2
TAP	29	144	5
TAP	29	168	4
TAP	29	192	5
TAP	29	240	2
TAP	29	264	3
TAP	29	288	2
TAP	29	336	5
TAP	30	0	4
TAP	30	48	3
TAP	30	96	2
TAP	30	144	1
TAP	30	192	3
TAP	30	240	4
TAP	30	288	5
TAP	30	336	6
BRK	31	96	0
BRK	31	96	7
TAP	31	144	1
TAP	31	192	7
TAP	31	216	6
TAP	31	240	7
TAP	31	288	5
TAP	31	336	1
TAP	32	0	0
TAP	32	24	1
TAP	32	48	0
TAP	32	96	2
TAP	32	144	6
TAP	32	192	1
TAP	32	240	0
TAP	32	288	7
TAP	32	336	6
TAP	33	0	5
TAP	33	24	5
TAP	33	48	5
TAP	33	96	3
TAP	33	96	4
TAP	33	192	2
TAP	33	216	2
TAP	33	240	2
TAP	33	288	3
TAP	33	288	4
BRK	34	0	1
BRK	34	0	5
TAP	34	72	0
TAP	34	72	4
BRK	34	144	1
BRK	34	144	5
BRK	34	216	3
BRK	34	216	7
BRK	34	288	2
BRK	34	288	6
TAP	34	336	4
TAP	34	360	4
TAP	35	0	2
TAP	35	48	1
TAP	35	96	0
TAP	35	144	3
TAP	35	168	3
TAP	35	192	5
TAP	35	240	6
TAP	35	288	7
TAP	35	336	4
TAP	35	360	4
TAP	36	0	3
TAP	36	48	3
TAP	36	72	3
TAP	36	96	5
TAP	36	144	5
TAP	36	168	5
TAP	36	192	1
TAP	36	240	1
TAP	36	264	1
TAP	36	288	7
TAP	36	336	7
STR	37	0	0
SCR	37	0	0	96	48	3
STR	37	192	1
SCL	37	192	1	96	48	6
STR	38	0	0
SI_	38	0	0	96	48	4
STR	38	96	1
SI_	38	96	1	96	48	5
STR	38	192	0
SI_	38	192	0	96	48	4
TAP	39	0	7
TAP	39	24	6
TAP	39	48	7
TAP	39	96	0
TAP	39	96	7
TAP	39	144	0
TAP	39	168	1
TAP	39	192	0
TAP	39	240	0
TAP	39	240	7
TAP	39	288	6
TAP	39	312	7
TAP	39	336	6
TAP	40	0	0
TAP	40	0	7
TAP	40	48	1
TAP	40	72	0
TAP	40	96	1
TAP	40	144	0
TAP	40	144	7
TAP	40	192	6
TAP	40	216	7
TAP	40	240	7
TAP	40	288	1
TAP	40	312	0
TAP	40	336	0
STR	41	0	6
SCR	41	0	6	96	48	1
STR	41	192	7
SCL	41	192	7	96	48	4
STR	42	0	6
SI_	42	0	6	96	48	2
STR	42	96	7
SI_	42	96	7	96	48	3
STR	42	192	6
SI_	42	192	6	96	48	2
TAP	42	288	7
TAP	43	48	1
TAP	43	48	7
TAP	43	96	0
TAP	43	96	6
TAP	43	192	1
TAP	43	216	0
TAP	43	240	7
BRK	43	264	6
TAP	44	0	7
TAP	44	48	0
TAP	44	96	1
TAP	44	120	1
TAP	44	168	0
TAP	44	216	7
TAP	44	264	6
TAP	44	288	6
TAP	44	336	7
TAP	45	48	3
TAP	45	48	5
TAP	45	96	2
TAP	45	96	4
TAP	45	192	5
TAP	45	216	4
TAP	45	240	3
BRK	45	264	2
TAP	46	0	6
TAP	46	48	6
TAP	46	96	7
TAP	46	120	0
TAP	46	168	1
TAP	46	216	1
TAP	46	264	0
TAP	46	288	7
TAP	46	336	6
TAP	47	48	3
TAP	47	48	7
TAP	47	96	0
TAP	47	96	4
TAP	47	192	6
TAP	47	216	6
TAP	47	240	1
BRK	47	264	1
TAP	48	0	7
TAP	48	48	6
TAP	48	96	5
TAP	48	120	4
TAP	48	168	0
TAP	48	216	1
TAP	48	264	2
TAP	48	288	3
TAP	48	336	4
TAP	49	48	3
TAP	49	48	7
STR	49	96	0
SCL	49	96	0	96	96	5
STR	49	96	4
SCL	49	96	4	96	96	1
TAP	50	0	0
TAP	50	24	7
TAP	50	48	0
TAP	50	72	7
TAP	50	96	1
TAP	50	120	6
TAP	50	144	1
TAP	50	168	6
TAP	50	192	2
TAP	50	216	1
TAP	50	240	0
TAP	50	264	7
BRK	50	288	6
TAP	51	0	4
TAP	51	24	5
TAP	51	48	4
TAP	51	72	5
TAP	51	120	3
TAP	51	144	4
TAP	51	168	3
TAP	51	192	4
TAP	51	240	2
TAP	51	264	3
TAP	51	288	2
TAP	51	312	3
TAP	51	336	2
STR	52	0	1
SI_	52	0	1	96	384	5
STR	52	0	2
SI_	52	0	2	96	384	6
TAP	52	120	1
TAP	52	120	2

T_REC_TAP	302
T_REC_BRK	14
T_REC_XTP	0
T_REC_HLD	15
T_REC_XHO	0
T_REC_STR	22
T_REC_BST	0
T_REC_XST	0
T_REC_TTP	0
T_REC_THO	0
T_REC_SLD	22
T_REC_ALL	375
T_NUM_TAP	324
T_NUM_BRK	14
T_NUM_HLD	15
T_NUM_SLD	22
T_NUM_ALL	375
T_JUDGE_TAP	338
T_JUDGE_HLD	96
T_JUDGE_SLD	22
T_JUDGE_ALL	456
TTM_EACHPAIRS	22
TTM_SCR_TAP	162000
TTM_SCR_BRK	36400
TTM_SCR_HLD	15000
TTM_SCR_SLD	33000
TTM_SCR_ALL	246400
TTM_SCR_S	237650
TTM_SCR_SS	245000
TTM_RAT_ACV	10057

