VERSION	0.00.00	1.03.00
FES_MODE	0
BPM_DEF	159.000	159.000	159.000	159.000
MET_DEF	4	4
RESOLUTION	384
CLK_DEF	384
COMPATIBLE_CODE	MA2

BPM	0	0	159.000
MET	0	0	4	4

HLD	3	0	2	288
HLD	4	0	1	288
HLD	5	0	0	288
HLD	6	0	7	288
BRK	6	288	0
TAP	7	0	0
TAP	7	96	1
TAP	7	192	0
TAP	7	288	1
TAP	8	0	2
TAP	8	96	3
TAP	8	192	2
TAP	8	288	3
TAP	9	0	1
TAP	9	96	0
TAP	9	192	1
TAP	9	289	0
TAP	10	0	7
TAP	10	96	6
TAP	10	192	7
TAP	10	288	0
TAP	10	288	7
TAP	11	0	7
TAP	11	96	6
TAP	11	192	7
TAP	11	288	6
TAP	12	0	5
TAP	12	96	4
TAP	12	192	5
TAP	12	288	4
HLD	13	0	6	96
HLD	13	192	6	96
STR	14	0	0
SI_	14	0	0	96	192	3
TAP	15	0	0
TAP	15	0	7
TAP	15	96	6
TAP	15	192	5
TAP	15	288	3
TAP	15	288	4
TAP	16	0	5
TAP	16	96	6
TAP	16	192	7
TAP	16	288	0
TAP	16	288	1
HLD	17	0	0	288
HLD	17	0	7	288
TAP	18	0	6
TAP	18	96	5
TAP	18	192	6
BRK	18	288	7
TAP	19	0	0
TAP	19	0	7
TAP	19	96	1
TAP	19	192	2
TAP	19	288	3
TAP	19	288	4
TAP	20	0	2
TAP	20	96	1
TAP	20	192	0
TAP	20	288	1
TAP	20	288	2
HLD	21	0	2	288
HLD	21	0	3	288
TAP	22	0	1
TAP	22	96	0
TAP	22	192	7
STR	22	288	6
SCL	22	288	6	96	192	3
HLD	24	0	3	288
HLD	25	0	4	288
TAP	26	0	6
TAP	26	0	7
TAP	26	72	0
TAP	26	72	7
TAP	26	144	0
TAP	26	144	1
TAP	26	240	7
BRK	26	288	7
TAP	27	0	7
TAP	27	96	6
TAP	27	192	7
TAP	27	288	6
TAP	28	0	5
TAP	28	96	4
TAP	28	192	5
TAP	28	288	4
TAP	29	0	6
TAP	29	96	7
TAP	29	192	6
TAP	29	288	7
TAP	30	0	0
TAP	30	96	1
TAP	30	192	0
TAP	30	288	0
TAP	30	288	7
TAP	31	0	5
TAP	31	0	7
TAP	31	96	4
TAP	31	96	6
TAP	31	192	7
TAP	31	288	0
TAP	32	0	1
TAP	32	96	1
TAP	32	192	2
TAP	32	288	2
HLD	33	0	1	96
HLD	33	192	1	96
HLD	34	0	0	240
BRK	34	288	0
BRK	34	288	7
TAP	35	0	6
TAP	35	0	7
TAP	35	96	0
TAP	35	192	1
TAP	35	288	3
TAP	35	288	4
TAP	36	0	2
TAP	36	96	1
TAP	36	192	0
TAP	36	288	0
TAP	36	288	7
HLD	37	0	6	288
HLD	37	0	7	288
TAP	38	0	0
TAP	38	96	0
TAP	38	192	1
BRK	38	288	1
TAP	39	0	0
TAP	39	0	1
TAP	39	96	7
TAP	39	192	6
TAP	39	288	4
TAP	39	288	5
TAP	40	0	6
TAP	40	96	7
TAP	40	192	0
TAP	40	288	1
TAP	40	288	2
HLD	41	0	2	288
HLD	41	0	3	288
TAP	42	0	1
TAP	42	96	0
TAP	42	192	7
TAP	42	288	6
HLD	43	0	0	96
TAP	43	192	1
TAP	43	264	1
TAP	44	0	7
TAP	44	48	7
TAP	44	96	7
TAP	44	192	6
TAP	44	240	6
TAP	44	288	6
HLD	45	0	7	96
TAP	45	192	0
TAP	45	264	0
TAP	46	0	1
TAP	46	96	2
TAP	46	192	1
TAP	46	240	1
TAP	46	288	0
TAP	46	288	7
TAP	47	0	6
TAP	47	48	5
TAP	47	96	4
TAP	47	192	6
TAP	47	240	7
TAP	47	288	0
TAP	48	0	3
TAP	48	48	4
TAP	48	96	5
TAP	48	192	3
TAP	48	240	2
TAP	48	288	1
TAP	49	0	7
TAP	49	48	6
TAP	49	96	5
TAP	49	192	7
TAP	49	240	0
TAP	49	288	1
TAP	50	0	0
TAP	50	48	7
TAP	50	96	6
TAP	50	144	5
TAP	50	192	4
TAP	50	240	3
TAP	50	288	2
TAP	50	336	1
HLD	51	0	0	384
HLD	52	120	1	360
HLD	52	120	7	360

T_REC_TAP	158
T_REC_BRK	6
T_REC_XTP	0
T_REC_HLD	24
T_REC_XHO	0
T_REC_STR	2
T_REC_BST	0
T_REC_XST	0
T_REC_TTP	0
T_REC_THO	0
T_REC_SLD	2
T_REC_ALL	192
T_NUM_TAP	160
T_NUM_BRK	6
T_NUM_HLD	24
T_NUM_SLD	2
T_NUM_ALL	192
T_JUDGE_TAP	166
T_JUDGE_HLD	125
T_JUDGE_SLD	2
T_JUDGE_ALL	293
TTM_EACHPAIRS	26
TTM_SCR_TAP	80000
TTM_SCR_BRK	15600
TTM_SCR_HLD	24000
TTM_SCR_SLD	3000
TTM_SCR_ALL	122600
TTM_SCR_S	118350
TTM_SCR_SS	122000
TTM_RAT_ACV	10049

