VERSION	0.00.00	1.03.00
FES_MODE	0
BPM_DEF	159.000	159.000	159.000	159.000
MET_DEF	4	4
RESOLUTION	384
CLK_DEF	384
COMPATIBLE_CODE	MA2

BPM	0	0	159.000
MET	0	0	4	4

STR	3	0	2
SI_	3	0	2	96	192	7
HLD	5	0	0	288
BRK	6	0	0
TAP	7	0	7
TAP	7	96	7
TAP	7	192	7
TAP	8	0	0
TAP	8	96	0
TAP	8	192	0
TAP	9	0	1
TAP	9	96	1
TAP	9	192	1
TAP	10	0	0
TAP	10	96	0
TAP	10	192	0
TAP	10	288	0
TAP	10	288	7
TAP	11	0	6
TAP	11	96	6
TAP	11	192	6
TAP	12	0	5
TAP	12	96	5
TAP	12	192	5
HLD	13	0	4	72
HLD	13	192	4	72
TAP	14	0	5
TAP	14	96	6
TAP	14	192	7
BRK	14	288	0
HLD	15	0	7	96
HLD	15	192	5	96
HLD	16	0	3	96
HLD	16	192	1	96
TAP	17	0	2
TAP	17	96	2
TAP	17	192	3
TAP	17	288	3
TAP	18	0	2
TAP	18	96	1
TAP	18	192	0
TAP	18	288	0
TAP	18	288	7
HLD	19	0	1	96
HLD	19	192	3	96
HLD	20	0	5	96
HLD	20	192	7	96
TAP	21	0	6
TAP	21	96	6
TAP	21	192	5
TAP	21	288	5
TAP	22	0	6
TAP	22	96	7
TAP	22	192	0
BRK	22	288	1
STR	23	0	2
SI_	23	0	2	96	192	6
STR	25	0	4
SI_	25	0	4	96	192	0
TAP	26	192	7
BRK	26	288	0
BRK	26	288	7
TAP	27	0	1
TAP	27	96	1
TAP	27	192	1
TAP	28	0	2
TAP	28	96	2
TAP	28	192	2
TAP	29	0	1
TAP	29	96	1
TAP	29	192	1
TAP	30	0	0
TAP	30	96	0
TAP	30	192	0
TAP	30	288	0
TAP	30	288	7
TAP	31	0	6
TAP	31	96	6
TAP	31	192	6
TAP	32	0	5
TAP	32	96	5
TAP	32	192	5
HLD	33	0	6	72
HLD	33	192	6	72
TAP	34	0	7
TAP	34	96	7
TAP	34	192	0
BRK	34	288	1
HLD	35	0	2	96
HLD	35	192	4	96
HLD	36	0	6	96
HLD	36	192	0	96
TAP	37	0	7
TAP	37	96	7
TAP	37	192	6
TAP	37	288	6
TAP	38	0	7
TAP	38	96	0
TAP	38	192	1
TAP	38	288	2
TAP	38	288	3
HLD	39	0	1	96
HLD	39	192	7	96
HLD	40	0	5	96
HLD	40	192	3	96
TAP	41	0	4
TAP	41	96	4
TAP	41	192	5
TAP	41	288	5
TAP	42	0	4
TAP	42	96	3
TAP	42	192	2
BRK	42	288	1
STR	43	0	0
SI_	43	0	0	96	96	3
TAP	44	0	3
TAP	44	96	5
TAP	44	192	3
TAP	44	288	1
STR	45	0	7
SI_	45	0	7	96	96	4
TAP	46	0	4
TAP	46	96	6
TAP	46	192	4
TAP	46	288	2
STR	47	0	0
SI_	47	0	0	96	96	3
TAP	48	0	4
TAP	48	96	5
TAP	48	192	6
TAP	48	288	7
STR	49	0	6
SI_	49	0	6	96	96	1
TAP	50	0	2
TAP	50	0	3
TAP	50	96	3
TAP	50	96	4
TAP	50	192	2
TAP	50	192	3
HLD	51	0	1	384
HLD	52	120	1	384
HLD	52	120	7	384

T_REC_TAP	97
T_REC_BRK	7
T_REC_XTP	0
T_REC_HLD	24
T_REC_XHO	0
T_REC_STR	7
T_REC_BST	0
T_REC_XST	0
T_REC_TTP	0
T_REC_THO	0
T_REC_SLD	7
T_REC_ALL	142
T_NUM_TAP	104
T_NUM_BRK	7
T_NUM_HLD	24
T_NUM_SLD	7
T_NUM_ALL	142
T_JUDGE_TAP	111
T_JUDGE_HLD	70
T_JUDGE_SLD	7
T_JUDGE_ALL	188
TTM_EACHPAIRS	9
TTM_SCR_TAP	52000
TTM_SCR_BRK	18200
TTM_SCR_HLD	24000
TTM_SCR_SLD	10500
TTM_SCR_ALL	104700
TTM_SCR_S	100900
TTM_SCR_SS	104000
TTM_RAT_ACV	10067

