VERSION	0.00.00	1.03.00
FES_MODE	0
BPM_DEF	156.000	156.000	156.000	156.000
MET_DEF	4	4
RESOLUTION	384
CLK_DEF	384
COMPATIBLE_CODE	MA2

BPM	0	0	156.000
MET	0	0	4	4

TAP	2	0	5
TAP	2	72	5
TAP	2	96	6
TAP	2	168	5
TAP	2	192	7
TAP	2	264	5
TAP	2	288	0
TAP	2	360	5
TAP	3	0	1
TAP	3	72	5
TAP	3	96	2
TAP	3	168	5
TAP	3	192	3
TAP	3	264	5
TAP	3	288	4
TAP	3	360	5
TAP	4	0	2
TAP	4	72	2
TAP	4	96	1
TAP	4	168	2
TAP	4	192	0
TAP	4	264	2
TAP	4	288	7
TAP	4	360	2
TAP	5	0	6
TAP	5	72	2
TAP	5	96	5
TAP	5	168	2
TAP	5	192	4
TAP	5	264	2
BRK	5	288	3
TAP	5	360	2
HLD	6	24	2	72
TAP	6	96	4
TAP	6	168	3
HLD	6	216	6	72
TAP	6	288	4
TAP	6	360	5
HLD	7	23	0	73
TAP	7	96	6
TAP	7	168	7
HLD	7	216	2	72
TAP	7	288	0
TAP	7	360	1
HLD	8	24	3	72
TAP	8	96	1
TAP	8	168	2
HLD	8	216	7	72
TAP	8	288	1
TAP	8	360	0
HLD	9	24	5	72
TAP	9	96	7
TAP	9	168	6
HLD	9	216	3	72
TAP	9	288	1
TAP	9	360	2
HLD	10	24	6	72
TAP	10	96	4
TAP	10	168	5
TAP	10	216	5
TAP	10	288	4
TAP	10	320	3
TAP	10	352	2
TAP	11	0	1
TAP	11	32	0
TAP	11	64	7
TAP	11	96	6
TAP	11	128	7
TAP	11	160	0
TAP	11	192	1
TAP	11	224	2
TAP	11	256	3
TAP	11	288	4
TAP	11	320	3
TAP	11	352	2
TAP	12	0	3
TAP	12	32	4
TAP	12	64	5
TAP	12	96	6
TAP	12	128	7
TAP	12	160	0
TAP	12	192	1
TAP	12	224	2
TAP	12	256	3
TAP	12	288	4
TAP	12	320	5
TAP	12	352	6
TAP	13	0	7
TAP	13	24	7
BRK	13	96	3
STR	13	192	4
SI_	13	192	4	96	48	0
BRK	13	288	6
TAP	14	0	6
TAP	14	24	5
TAP	14	72	5
TAP	14	96	4
TAP	14	144	4
TAP	14	168	3
TAP	14	216	2
TAP	14	264	2
TAP	14	312	1
STR	15	0	1
SI_	15	0	1	96	48	5
STR	15	48	5
SI_	15	48	5	96	48	0
STR	15	192	5
SI_	15	192	5	96	48	1
STR	15	240	1
SI_	15	240	1	96	48	4
TAP	16	0	1
TAP	16	24	2
TAP	16	72	2
TAP	16	96	3
TAP	16	144	3
TAP	16	168	4
TAP	16	216	5
TAP	16	264	5
TAP	16	312	6
STR	17	0	6
SI_	17	0	6	96	48	2
STR	17	48	2
SI_	17	48	2	96	48	7
STR	17	192	2
SI_	17	192	2	96	48	6
STR	17	240	6
SI_	17	240	6	96	48	3
TAP	18	0	6
TAP	18	24	5
TAP	18	72	5
TAP	18	96	4
TAP	18	144	4
TAP	18	168	3
TAP	18	216	2
TAP	18	264	2
TAP	18	312	1
STR	19	0	1
SI_	19	0	1	96	48	5
STR	19	48	5
SCR	19	48	5	96	48	0
STR	19	192	5
SI_	19	192	5	96	48	1
STR	19	240	1
SCR	19	240	1	96	48	4
TAP	20	0	1
TAP	20	24	2
TAP	20	72	2
TAP	20	96	3
TAP	20	144	3
TAP	20	168	4
TAP	20	216	5
TAP	20	264	5
TAP	20	312	6
STR	21	0	6
SI_	21	0	6	96	48	2
STR	21	48	2
SCL	21	48	2	96	48	7
STR	21	192	2
SI_	21	192	2	96	48	6
STR	21	240	6
SCL	21	240	6	96	48	3
TAP	22	0	6
TAP	22	24	5
TAP	22	72	5
TAP	22	96	4
TAP	22	144	4
TAP	22	168	3
TAP	22	216	2
TAP	22	264	2
TAP	22	312	1
STR	23	0	1
SCL	23	0	1	96	48	6
STR	23	48	5
SCR	23	48	5	96	48	0
STR	23	192	5
SCL	23	192	5	96	48	2
STR	23	240	1
SCR	23	240	1	96	48	4
TAP	24	0	1
TAP	24	24	2
TAP	24	72	2
TAP	24	96	3
TAP	24	144	3
TAP	24	168	4
TAP	24	216	5
TAP	24	264	5
TAP	24	312	6
STR	25	0	6
SCR	25	0	6	96	48	1
STR	25	48	2
SCL	25	48	2	96	48	7
STR	25	192	2
SCR	25	192	2	96	48	5
STR	25	240	6
SCL	25	240	6	96	48	3
TAP	26	0	6
TAP	26	24	5
TAP	26	72	5
TAP	26	96	4
TAP	26	144	4
TAP	26	168	3
TAP	26	216	2
TAP	26	264	2
TAP	26	312	1
STR	27	0	0
SCR	27	0	0	96	48	3
STR	27	48	4
SCL	27	48	4	96	48	1
STR	27	192	4
SCR	27	192	4	96	48	7
STR	27	240	0
SCL	27	240	0	96	48	5
TAP	28	0	3
TAP	28	24	2
TAP	28	72	2
TAP	28	96	1
TAP	28	144	1
TAP	28	168	0
TAP	28	216	1
TAP	28	264	1
TAP	28	312	7
TAP	28	360	7
TAP	29	0	0
TAP	29	16	1
TAP	29	32	2
TAP	29	48	3
TAP	29	64	4
TAP	29	80	5
TAP	29	96	6
TAP	29	144	6
HLD	29	192	6	96
BRK	29	288	0
TAP	30	24	6
TAP	30	72	5
TAP	30	96	6
TAP	30	144	6
TAP	30	168	7
TAP	30	216	1
TAP	30	264	2
TAP	30	288	1
TAP	30	336	1
TAP	30	360	0
TAP	31	24	5
TAP	31	72	4
TAP	31	96	5
TAP	31	144	5
TAP	31	168	6
TAP	31	216	2
TAP	31	264	3
TAP	31	288	2
TAP	31	336	2
TAP	31	360	1
TAP	32	24	6
TAP	32	72	4
TAP	32	96	3
TAP	32	144	3
TAP	32	168	2
TAP	32	216	1
TAP	32	264	3
TAP	32	288	4
TAP	32	336	4
TAP	32	360	5
TAP	33	24	5
TAP	33	72	7
TAP	33	96	0
TAP	33	144	0
TAP	33	168	1
TAP	33	216	2
TAP	33	264	0
TAP	33	288	7
TAP	33	336	7
TAP	33	360	6
TAP	34	24	4
TAP	34	72	0
TAP	34	96	1
TAP	34	144	1
TAP	34	168	2
TAP	34	216	3
TAP	34	264	7
TAP	34	288	6
TAP	34	336	6
TAP	34	360	5
TAP	35	24	7
TAP	35	72	3
TAP	35	96	2
TAP	35	144	2
TAP	35	168	1
TAP	35	216	0
TAP	35	264	4
TAP	35	288	5
TAP	35	336	5
TAP	35	360	6
TAP	36	24	0
TAP	36	72	2
TAP	36	96	4
TAP	36	144	4
TAP	36	168	6
TAP	36	216	7
TAP	36	264	5
TAP	36	288	3
TAP	36	336	3
TAP	36	360	1
TAP	37	24	5
TAP	37	72	7
TAP	37	96	1
TAP	37	144	1
TAP	37	168	3
TAP	37	216	2
TAP	37	264	0
TAP	37	288	6
TAP	37	336	6
BRK	37	360	4
HLD	38	24	2	72
TAP	38	96	4
TAP	38	168	3
TAP	38	168	5
HLD	38	216	6	72
TAP	38	288	4
TAP	38	360	3
TAP	38	360	5
HLD	39	23	0	73
TAP	39	96	6
TAP	39	168	5
TAP	39	168	7
HLD	39	216	2	72
TAP	39	288	0
TAP	39	360	1
TAP	39	360	7
HLD	40	24	3	72
TAP	40	96	1
TAP	40	168	0
TAP	40	168	2
HLD	40	216	7	72
TAP	40	288	1
TAP	40	360	0
TAP	40	360	2
HLD	41	24	5	72
TAP	41	96	7
TAP	41	168	0
TAP	41	168	6
HLD	41	216	3	72
TAP	41	288	1
TAP	41	360	0
TAP	41	360	2
TAP	42	24	0
HLD	42	24	2	72
TAP	42	96	4
TAP	42	168	3
TAP	42	168	5
TAP	42	216	0
HLD	42	216	6	72
TAP	42	288	4
TAP	42	360	3
TAP	42	360	5
HLD	43	24	0	72
TAP	43	24	2
TAP	43	96	6
TAP	43	168	5
TAP	43	168	7
HLD	43	216	2	72
TAP	43	216	4
TAP	43	288	0
TAP	43	360	1
TAP	43	360	7
HLD	44	24	3	72
TAP	44	24	5
TAP	44	96	1
TAP	44	168	0
TAP	44	168	2
TAP	44	216	5
HLD	44	216	7	72
TAP	44	288	1
TAP	44	360	0
TAP	44	360	2
TAP	45	24	3
HLD	45	24	5	72
TAP	45	96	7
TAP	45	168	0
TAP	45	168	6
HLD	45	216	3	72
BRK	45	288	7
STR	46	0	7
SI_	46	0	7	96	96	4
STR	46	96	4
SI_	46	96	4	96	96	1
STR	46	192	1
SI_	46	192	1	96	96	6
STR	46	288	6
SI_	46	288	6	96	96	3
STR	47	0	3
SI_	47	0	3	96	96	0
STR	47	96	0
SI_	47	96	0	96	96	5
STR	47	192	5
SI_	47	192	5	96	96	2
STR	47	288	2
SCL	47	288	2	96	96	7
STR	48	0	7
SI_	48	0	7	96	96	3
STR	48	96	3
SCR	48	96	3	96	96	6
STR	48	192	6
SI_	48	192	6	96	96	2
STR	48	288	2
SI_	48	288	2	96	96	5
STR	49	0	5
SCR	49	0	5	96	96	0
STR	49	96	0
SI_	49	96	0	96	96	4
BRK	49	192	4
BRK	49	288	1
STR	50	0	6
SI_	50	0	6	96	96	3
TAP	50	48	6
STR	50	96	3
SI_	50	96	3	96	96	0
TAP	50	144	3
STR	50	192	0
SCL	50	192	0	96	96	5
TAP	50	240	0
STR	50	288	5
SCL	50	288	5	96	96	2
TAP	50	336	5
STR	51	0	2
SI_	51	0	2	96	96	7
TAP	51	48	2
STR	51	96	7
SCR	51	96	7	96	96	2
TAP	51	144	7
STR	51	192	2
SCR	51	192	2	96	96	5
TAP	51	240	2
STR	51	288	5
SI_	51	288	5	96	96	0
TAP	51	336	5
STR	52	0	0
SCL	52	0	0	96	96	5
TAP	52	48	0
STR	52	96	5
SCL	52	96	5	96	96	2
TAP	52	144	5
STR	52	192	2
SI_	52	192	2	96	96	5
STR	52	240	2
SI_	52	240	2	96	48	7

T_REC_TAP	301
T_REC_BRK	8
T_REC_XTP	0
T_REC_HLD	26
T_REC_XHO	0
T_REC_STR	55
T_REC_BST	0
T_REC_XST	0
T_REC_TTP	0
T_REC_THO	0
T_REC_SLD	55
T_REC_ALL	445
T_NUM_TAP	356
T_NUM_BRK	8
T_NUM_HLD	26
T_NUM_SLD	55
T_NUM_ALL	445
T_JUDGE_TAP	364
T_JUDGE_HLD	52
T_JUDGE_SLD	55
T_JUDGE_ALL	471
TTM_EACHPAIRS	22
TTM_SCR_TAP	178000
TTM_SCR_BRK	20800
TTM_SCR_HLD	26000
TTM_SCR_SLD	82500
TTM_SCR_ALL	307300
TTM_SCR_S	297350
TTM_SCR_SS	306500
TTM_RAT_ACV	10026

