VERSION	0.00.00	1.03.00
FES_MODE	0
BPM_DEF	156.000	156.000	156.000	156.000
MET_DEF	4	4
RESOLUTION	384
CLK_DEF	384
COMPATIBLE_CODE	MA2

BPM	0	0	156.000
MET	0	0	4	4

STR	1	0	4
SI_	1	0	4	96	192	0
TAP	2	0	1
TAP	2	96	1
TAP	2	192	2
TAP	2	288	2
TAP	3	0	3
TAP	3	96	3
TAP	3	192	4
TAP	3	288	4
TAP	4	0	5
TAP	4	96	5
TAP	4	192	6
TAP	4	288	6
TAP	5	0	7
TAP	5	96	7
TAP	5	192	0
TAP	5	288	0
TAP	6	0	7
TAP	6	48	7
TAP	6	72	6
TAP	6	144	6
TAP	6	168	5
TAP	6	240	7
TAP	6	264	0
TAP	6	336	0
TAP	6	360	1
TAP	7	48	2
TAP	7	72	3
TAP	7	144	3
TAP	7	168	4
TAP	7	240	2
TAP	7	264	1
TAP	7	336	1
TAP	7	360	0
TAP	8	48	7
TAP	8	72	6
TAP	8	144	6
TAP	8	168	5
TAP	8	240	7
TAP	8	264	0
TAP	8	336	0
TAP	8	360	1
TAP	9	48	1
TAP	9	72	2
TAP	9	144	2
TAP	9	168	3
TAP	9	240	3
TAP	9	264	4
TAP	9	336	4
TAP	9	360	5
TAP	10	48	4
TAP	10	72	3
TAP	10	144	3
TAP	10	168	2
TAP	10	240	2
TAP	10	264	1
TAP	10	336	1
TAP	10	360	0
TAP	11	48	0
TAP	11	72	7
TAP	11	144	7
TAP	11	168	6
TAP	11	240	6
TAP	11	264	5
TAP	11	336	5
TAP	11	360	4
TAP	12	48	4
TAP	12	72	3
TAP	12	144	3
TAP	12	168	2
TAP	12	240	2
TAP	12	264	1
HLD	13	0	0	240
BRK	13	288	0
TAP	14	0	6
TAP	14	48	5
TAP	14	96	4
TAP	14	96	7
TAP	14	192	0
TAP	14	240	1
TAP	14	288	2
TAP	14	288	7
TAP	15	0	7
TAP	15	48	6
TAP	15	96	0
TAP	15	96	5
TAP	15	192	1
TAP	15	240	2
TAP	15	288	0
TAP	15	288	3
TAP	16	0	7
TAP	16	48	6
TAP	16	96	4
TAP	16	96	5
TAP	16	192	7
TAP	16	240	0
TAP	16	288	1
TAP	16	288	2
TAP	17	0	0
TAP	17	48	7
TAP	17	96	0
TAP	17	96	6
TAP	17	192	7
TAP	17	240	0
TAP	17	288	1
TAP	17	288	7
TAP	18	0	6
TAP	18	48	5
HLD	18	72	4	72
TAP	18	192	7
TAP	18	240	0
HLD	18	264	1	72
TAP	19	0	2
TAP	19	48	3
HLD	19	72	4	72
TAP	19	192	2
TAP	19	240	1
HLD	19	264	0	72
TAP	20	0	7
TAP	20	48	6
HLD	20	72	5	72
TAP	20	144	6
TAP	20	192	7
TAP	20	240	0
HLD	20	264	1	72
TAP	20	336	2
TAP	21	0	7
TAP	21	48	6
HLD	21	72	5	72
TAP	21	144	4
TAP	21	192	3
TAP	21	240	2
HLD	21	264	1	72
BRK	21	336	0
TAP	22	0	0
TAP	22	48	2
TAP	22	96	4
TAP	22	144	6
TAP	22	192	0
TAP	22	240	2
TAP	22	288	4
TAP	22	288	5
TAP	22	336	6
TAP	23	0	5
TAP	23	48	3
TAP	23	96	1
TAP	23	144	7
TAP	23	192	5
TAP	23	240	3
TAP	23	288	0
TAP	23	288	1
TAP	23	336	7
TAP	24	0	0
TAP	24	48	2
TAP	24	96	4
TAP	24	144	6
TAP	24	192	0
TAP	24	240	2
TAP	24	288	4
TAP	24	288	5
TAP	24	336	6
TAP	25	0	5
TAP	25	48	3
TAP	25	96	1
TAP	25	144	7
TAP	25	192	5
TAP	25	240	3
TAP	25	288	0
TAP	25	288	1
TAP	25	336	7
TAP	26	0	7
TAP	26	48	6
HLD	26	72	5	72
TAP	26	144	4
TAP	26	192	7
TAP	26	240	0
HLD	26	264	1	72
TAP	26	336	2
TAP	27	0	0
TAP	27	48	7
HLD	27	72	6	72
TAP	27	144	5
TAP	27	192	3
TAP	27	240	2
HLD	27	264	1	72
TAP	27	336	0
TAP	28	0	7
TAP	28	48	6
HLD	28	72	5	72
TAP	28	144	6
TAP	28	192	7
TAP	28	240	0
HLD	28	264	1	72
TAP	28	336	0
HLD	29	0	6	192
STR	29	192	7
SI_	29	192	7	96	48	4
TAP	29	240	7
TAP	30	0	3
TAP	30	24	2
TAP	30	72	2
TAP	30	96	3
TAP	30	144	4
TAP	30	168	5
TAP	30	216	5
TAP	30	240	6
TAP	30	288	7
TAP	31	0	6
TAP	31	24	5
TAP	31	72	5
TAP	31	96	4
TAP	31	144	4
TAP	31	168	3
TAP	31	216	3
TAP	31	240	2
TAP	31	288	1
TAP	31	336	0
HLD	32	0	7	144
TAP	32	48	6
TAP	32	96	5
HLD	32	144	4	144
TAP	32	192	3
TAP	32	240	2
TAP	32	288	1
HLD	32	336	0	192
TAP	33	0	1
TAP	33	48	2
TAP	33	96	3
HLD	33	144	4	192
TAP	33	192	5
TAP	33	240	6
TAP	33	288	7
TAP	33	336	0
TAP	34	0	7
TAP	34	24	6
TAP	34	72	6
TAP	34	96	7
TAP	34	144	0
TAP	34	168	1
TAP	34	216	1
TAP	34	240	2
TAP	34	288	3
TAP	35	0	2
TAP	35	24	1
TAP	35	72	1
TAP	35	96	0
TAP	35	144	0
TAP	35	168	7
TAP	35	216	7
TAP	35	240	6
TAP	35	288	5
TAP	35	336	4
HLD	36	0	3	144
TAP	36	48	2
TAP	36	96	1
HLD	36	144	0	144
TAP	36	192	7
STR	36	240	6
SI_	36	240	6	96	48	2
TAP	36	288	6
STR	36	336	1
SI_	36	336	1	96	48	5
TAP	37	0	1
STR	37	48	7
SI_	37	48	7	96	48	3
TAP	37	96	7
TAP	37	240	0
BRK	37	288	0
TAP	38	0	3
TAP	38	24	2
TAP	38	72	2
TAP	38	96	3
TAP	38	144	4
TAP	38	168	5
TAP	38	216	5
TAP	38	240	6
TAP	38	288	7
TAP	39	0	6
TAP	39	24	5
TAP	39	72	5
TAP	39	96	4
TAP	39	144	4
TAP	39	168	3
TAP	39	216	3
TAP	39	240	2
TAP	39	288	1
TAP	39	336	0
HLD	40	0	7	144
TAP	40	48	6
TAP	40	96	5
HLD	40	144	4	144
TAP	40	192	3
TAP	40	240	2
TAP	40	288	1
HLD	40	336	0	192
TAP	41	0	1
TAP	41	48	2
TAP	41	96	3
HLD	41	144	4	192
TAP	41	192	5
TAP	41	240	6
TAP	41	288	7
TAP	41	336	0
TAP	42	0	7
TAP	42	24	6
TAP	42	72	6
TAP	42	96	7
TAP	42	144	0
TAP	42	168	1
TAP	42	216	1
TAP	42	240	2
TAP	42	288	3
TAP	43	0	2
TAP	43	24	1
TAP	43	72	1
TAP	43	96	0
TAP	43	144	0
TAP	43	168	7
TAP	43	216	7
TAP	43	240	6
TAP	43	288	5
TAP	43	336	4
STR	44	0	3
SI_	44	0	3	96	48	7
TAP	44	48	3
STR	44	144	0
SI_	44	144	0	96	48	5
TAP	44	192	0
STR	44	240	6
SI_	44	240	6	96	48	3
TAP	44	288	6
STR	44	336	7
SI_	44	336	7	96	48	3
TAP	45	0	7
STR	45	48	0
SI_	45	48	0	96	48	3
TAP	45	96	0
TAP	45	240	7
BRK	45	288	7
TAP	46	0	7
TAP	46	48	6
TAP	46	96	0
TAP	46	96	5
TAP	46	144	1
TAP	46	192	2
TAP	46	240	3
TAP	46	288	4
TAP	46	288	7
TAP	46	336	6
TAP	47	0	5
TAP	47	48	4
TAP	47	96	0
TAP	47	96	3
TAP	47	144	1
TAP	47	192	2
TAP	47	240	3
TAP	47	288	0
TAP	47	288	4
TAP	47	336	7
TAP	48	0	6
TAP	48	48	5
TAP	48	96	4
TAP	48	96	7
TAP	48	144	0
TAP	48	192	1
TAP	48	240	2
TAP	48	288	0
TAP	48	288	3
TAP	48	336	7
TAP	49	0	6
TAP	49	48	7
TAP	49	96	0
TAP	49	96	1
TAP	49	144	2
TAP	49	192	3
TAP	49	240	2
TAP	49	288	0
TAP	49	288	1
TAP	49	336	7
TAP	50	0	6
TAP	50	48	6
TAP	50	96	5
TAP	50	144	5
TAP	50	192	4
TAP	50	240	4
TAP	50	288	3
TAP	50	336	3
TAP	51	0	6
TAP	51	48	6
TAP	51	96	7
TAP	51	144	7
TAP	51	192	0
TAP	51	240	0
TAP	51	288	1
TAP	51	336	1
TAP	52	0	7
TAP	52	48	6
TAP	52	96	5
TAP	52	144	4
STR	52	192	3
SI_	52	192	3	96	48	0

T_REC_TAP	350
T_REC_BRK	4
T_REC_XTP	0
T_REC_HLD	26
T_REC_XHO	0
T_REC_STR	11
T_REC_BST	0
T_REC_XST	0
T_REC_TTP	0
T_REC_THO	0
T_REC_SLD	11
T_REC_ALL	402
T_NUM_TAP	361
T_NUM_BRK	4
T_NUM_HLD	26
T_NUM_SLD	11
T_NUM_ALL	402
T_JUDGE_TAP	365
T_JUDGE_HLD	71
T_JUDGE_SLD	11
T_JUDGE_ALL	447
TTM_EACHPAIRS	20
TTM_SCR_TAP	180500
TTM_SCR_BRK	10400
TTM_SCR_HLD	26000
TTM_SCR_SLD	16500
TTM_SCR_ALL	233400
TTM_SCR_S	226050
TTM_SCR_SS	233000
TTM_RAT_ACV	10017

