VERSION	0.00.00	1.03.00
FES_MODE	0
BPM_DEF	156.000	156.000	156.000	156.000
MET_DEF	4	4
RESOLUTION	384
CLK_DEF	384
COMPATIBLE_CODE	MA2

BPM	0	0	156.000
MET	0	0	4	4

TAP	2	0	0
TAP	2	96	0
TAP	2	192	1
TAP	2	288	1
TAP	3	0	2
TAP	3	96	2
TAP	3	192	3
TAP	3	288	3
TAP	4	0	4
TAP	4	96	4
TAP	4	192	5
TAP	4	288	5
TAP	5	0	6
TAP	5	96	6
TAP	5	192	7
TAP	5	288	7
TAP	6	0	0
TAP	6	96	0
TAP	6	192	1
TAP	6	288	1
TAP	7	0	0
TAP	7	96	0
TAP	7	192	7
TAP	7	288	7
TAP	8	0	6
TAP	8	96	6
TAP	8	192	5
TAP	8	288	5
TAP	9	0	4
TAP	9	96	4
TAP	9	192	3
TAP	9	288	3
HLD	10	0	2	1440
BRK	13	288	0
TAP	14	0	7
TAP	14	48	6
TAP	14	96	5
TAP	14	192	3
TAP	14	240	4
TAP	14	288	5
TAP	15	0	7
TAP	15	48	0
TAP	15	96	1
TAP	15	192	3
TAP	15	240	2
TAP	15	288	1
TAP	16	0	7
TAP	16	48	6
TAP	16	96	5
TAP	16	192	7
TAP	16	240	0
TAP	16	288	1
TAP	17	0	2
TAP	17	48	3
TAP	17	96	4
TAP	17	192	3
TAP	17	240	2
TAP	17	288	1
TAP	18	0	7
TAP	18	48	7
TAP	18	96	6
TAP	18	144	6
TAP	18	192	5
TAP	18	240	5
TAP	18	288	5
TAP	19	0	7
TAP	19	48	7
TAP	19	96	0
TAP	19	144	0
TAP	19	192	1
TAP	19	240	1
TAP	19	288	1
TAP	20	0	0
TAP	20	48	7
TAP	20	96	6
TAP	20	192	6
TAP	20	240	7
TAP	20	288	0
TAP	21	0	1
TAP	21	48	2
TAP	21	96	3
TAP	21	192	3
TAP	21	240	2
TAP	21	288	1
TAP	22	0	7
TAP	22	96	6
TAP	22	96	7
TAP	22	192	6
TAP	22	288	5
TAP	22	288	6
TAP	23	0	5
TAP	23	96	4
TAP	23	96	5
TAP	23	192	4
TAP	23	288	3
TAP	23	288	4
TAP	24	0	4
TAP	24	96	4
TAP	24	96	5
TAP	24	192	5
TAP	24	288	5
TAP	24	288	6
TAP	25	0	6
TAP	25	96	6
TAP	25	96	7
TAP	25	192	7
TAP	25	288	0
TAP	25	288	7
HLD	26	0	1	384
HLD	27	0	2	384
TAP	28	0	1
TAP	28	48	0
TAP	28	96	7
TAP	28	192	6
TAP	28	240	7
TAP	28	288	0
HLD	29	0	1	288
BRK	29	288	2
HLD	30	0	7	144
HLD	30	144	6	144
TAP	30	288	5
HLD	30	336	5	336
STR	32	0	4
SI_	32	0	4	96	96	0
STR	33	0	2
SI_	33	0	2	96	96	6
HLD	34	0	7	144
HLD	34	144	0	144
TAP	34	288	1
HLD	34	336	1	336
STR	36	0	0
SI_	36	0	0	96	96	4
STR	37	0	6
SI_	37	0	6	96	96	2
HLD	38	0	1	144
HLD	38	144	0	144
TAP	38	288	7
HLD	38	336	7	336
STR	40	0	6
SI_	40	0	6	96	96	1
STR	41	0	2
SI_	41	0	2	96	96	5
HLD	42	0	4	144
HLD	42	144	3	144
TAP	42	288	2
HLD	42	336	2	336
STR	44	0	1
SI_	44	0	1	96	96	6
STR	45	0	4
SI_	45	0	4	96	96	0
BRK	45	288	7
TAP	46	0	6
TAP	46	48	6
TAP	46	96	5
TAP	46	144	5
TAP	46	192	4
TAP	46	240	4
TAP	46	288	4
TAP	47	0	6
TAP	47	48	6
TAP	47	96	7
TAP	47	144	7
TAP	47	192	0
TAP	47	240	0
TAP	47	288	0
TAP	48	0	1
TAP	48	48	1
TAP	48	96	2
TAP	48	144	2
TAP	48	192	3
TAP	48	240	3
TAP	48	288	3
TAP	49	0	1
TAP	49	48	1
TAP	49	96	0
TAP	49	144	0
TAP	49	192	7
TAP	49	240	7
TAP	49	288	7
TAP	50	0	0
TAP	50	96	3
TAP	50	192	6
TAP	50	288	1
TAP	51	0	4
TAP	51	96	7
TAP	51	192	2
TAP	51	288	5
TAP	52	0	0
TAP	52	48	0
TAP	52	96	7
TAP	52	144	7
TAP	52	192	6
TAP	52	288	0
TAP	52	288	7

T_REC_TAP	159
T_REC_BRK	3
T_REC_XTP	0
T_REC_HLD	16
T_REC_XHO	0
T_REC_STR	8
T_REC_BST	0
T_REC_XST	0
T_REC_TTP	0
T_REC_THO	0
T_REC_SLD	8
T_REC_ALL	194
T_NUM_TAP	167
T_NUM_BRK	3
T_NUM_HLD	16
T_NUM_SLD	8
T_NUM_ALL	194
T_JUDGE_TAP	170
T_JUDGE_HLD	104
T_JUDGE_SLD	8
T_JUDGE_ALL	282
TTM_EACHPAIRS	9
TTM_SCR_TAP	83500
TTM_SCR_BRK	7800
TTM_SCR_HLD	16000
TTM_SCR_SLD	12000
TTM_SCR_ALL	119300
TTM_SCR_S	115450
TTM_SCR_SS	119000
TTM_RAT_ACV	10025

