VERSION	0.00.00	1.03.00
FES_MODE	0
BPM_DEF	156.000	156.000	156.000	156.000
MET_DEF	4	4
RESOLUTION	384
CLK_DEF	384
COMPATIBLE_CODE	MA2

BPM	0	0	156.000
MET	0	0	4	4

TAP	2	0	0
TAP	2	192	0
TAP	3	0	1
TAP	3	192	1
TAP	4	0	2
TAP	4	192	2
TAP	5	0	3
TAP	5	192	3
TAP	6	0	2
TAP	6	96	2
TAP	6	192	1
TAP	6	288	1
TAP	7	0	0
TAP	7	96	0
TAP	7	192	7
TAP	7	288	7
TAP	8	0	6
TAP	8	96	6
TAP	8	192	5
TAP	8	288	5
TAP	9	0	4
TAP	9	96	4
TAP	9	192	3
STR	9	288	3
SI_	9	288	3	96	192	7
TAP	13	192	7
BRK	13	288	7
TAP	14	96	1
TAP	14	192	1
TAP	14	288	1
TAP	15	96	2
TAP	15	192	2
TAP	15	288	2
TAP	16	96	1
TAP	16	192	1
TAP	16	288	1
TAP	17	96	0
TAP	17	192	0
TAP	17	288	0
TAP	18	96	7
TAP	18	192	7
TAP	18	288	7
TAP	19	96	6
TAP	19	192	6
TAP	19	288	6
TAP	20	96	7
TAP	20	192	7
TAP	20	288	7
TAP	21	96	0
TAP	21	192	0
TAP	21	288	0
TAP	22	0	1
TAP	22	96	1
TAP	22	192	2
TAP	22	288	2
TAP	23	0	1
TAP	23	96	1
TAP	23	192	0
TAP	23	288	0
TAP	24	0	7
TAP	24	96	7
TAP	24	192	6
TAP	24	288	6
TAP	25	0	5
TAP	25	96	5
TAP	25	192	4
TAP	25	288	4
TAP	26	0	6
TAP	26	96	6
TAP	26	192	7
TAP	26	288	7
TAP	27	0	1
TAP	27	96	1
TAP	27	192	2
TAP	27	288	2
TAP	28	0	1
TAP	28	96	0
TAP	28	96	1
TAP	28	192	7
TAP	28	288	6
TAP	28	288	7
TAP	29	0	0
TAP	29	96	0
TAP	29	96	1
TAP	29	192	1
TAP	29	192	2
TAP	29	288	2
TAP	29	288	3
HLD	30	0	1	288
HLD	31	0	0	288
TAP	32	96	7
TAP	32	192	7
TAP	32	288	7
TAP	33	96	6
TAP	33	192	6
TAP	33	288	6
HLD	34	0	7	288
HLD	35	0	0	288
TAP	36	96	1
TAP	36	192	1
TAP	36	288	1
TAP	37	96	2
TAP	37	192	2
TAP	37	288	2
HLD	38	0	4	288
HLD	39	0	5	288
TAP	40	96	4
TAP	40	192	4
TAP	40	288	4
TAP	41	96	3
TAP	41	192	3
TAP	41	288	3
HLD	42	0	2	288
HLD	43	0	1	288
TAP	44	96	0
TAP	44	192	0
TAP	44	288	0
TAP	45	96	0
TAP	45	96	7
BRK	45	288	0
BRK	45	288	7
TAP	46	96	6
TAP	46	192	5
TAP	46	288	6
TAP	47	96	0
TAP	47	192	7
TAP	47	288	0
TAP	48	96	1
TAP	48	192	2
TAP	48	288	1
TAP	49	96	3
TAP	49	192	4
TAP	49	288	3
TAP	50	0	2
TAP	50	96	2
TAP	50	192	1
TAP	50	288	1
TAP	51	0	0
TAP	51	96	0
TAP	51	192	7
TAP	51	288	7
TAP	52	0	6
TAP	52	96	6
STR	52	192	5
SI_	52	192	5	96	96	2

T_REC_TAP	130
T_REC_BRK	3
T_REC_XTP	0
T_REC_HLD	8
T_REC_XHO	0
T_REC_STR	2
T_REC_BST	0
T_REC_XST	0
T_REC_TTP	0
T_REC_THO	0
T_REC_SLD	2
T_REC_ALL	145
T_NUM_TAP	132
T_NUM_BRK	3
T_NUM_HLD	8
T_NUM_SLD	2
T_NUM_ALL	145
T_JUDGE_TAP	135
T_JUDGE_HLD	48
T_JUDGE_SLD	2
T_JUDGE_ALL	185
TTM_EACHPAIRS	7
TTM_SCR_TAP	66000
TTM_SCR_BRK	7800
TTM_SCR_HLD	8000
TTM_SCR_SLD	3000
TTM_SCR_ALL	84800
TTM_SCR_S	82000
TTM_SCR_SS	84500
TTM_RAT_ACV	10035

