VERSION	0.00.00	1.04.00
FES_MODE	0
BPM_DEF	132.000	132.000	132.000	132.000
MET_DEF	4	4
RESOLUTION	384
CLK_DEF	384
COMPATIBLE_CODE	MA2

BPM	0	0	132.000
MET	0	0	4	4

NMTAP	2	0	3
NMTAP	2	0	4
NMTAP	2	72	2
NMTAP	2	72	3
NMTAP	2	144	3
NMTAP	2	144	4
NMTAP	2	216	4
NMSTR	2	216	5
NMSV_	2	216	5	96	72	7
NMTAP	2	288	3
NMTAP	2	336	3
NMTAP	3	0	3
NMTAP	3	72	4
NMTAP	3	72	5
NMTAP	3	144	3
NMTAP	3	144	4
NMSTR	3	216	2
NMSV_	3	216	2	96	72	0
NMTAP	3	216	3
NMTAP	3	288	4
NMTAP	3	336	4
NMTAP	4	0	4
NMTAP	4	72	2
NMTAP	4	72	3
NMTAP	4	144	3
NMTAP	4	144	4
NMTAP	4	216	4
NMSTR	4	216	5
NMSV_	4	216	5	96	72	7
NMTAP	4	288	3
NMTAP	4	336	3
NMTAP	5	0	3
NMTAP	5	72	4
NMTAP	5	72	5
NMTAP	5	144	2
NMTAP	5	144	3
NMTAP	5	216	0
NMTAP	5	216	1
BRTAP	5	288	6
BRTAP	5	288	7
NMTAP	6	0	3
NMTAP	6	0	4
NMTAP	6	72	1
NMTAP	6	72	2
NMTAP	6	144	3
NMTAP	6	144	4
NMTAP	6	216	5
NMSTR	6	216	6
NMSV_	6	216	6	96	72	7
NMTAP	6	288	4
NMTAP	6	336	4
NMTAP	7	0	4
NMTAP	7	72	5
NMTAP	7	72	6
NMTAP	7	144	3
NMTAP	7	144	4
NMSTR	7	216	1
NMSV_	7	216	1	96	72	0
NMTAP	7	216	2
NMTAP	7	288	3
NMTAP	7	336	3
NMTAP	8	0	3
NMTAP	8	72	1
NMTAP	8	72	2
NMTAP	8	144	3
NMTAP	8	144	4
NMTAP	8	216	5
NMSTR	8	216	6
NMSV_	8	216	6	96	72	7
NMTAP	8	288	4
NMTAP	8	336	4
NMTAP	9	0	4
NMTAP	9	72	3
NMTAP	9	72	5
NMTAP	9	144	1
NMTAP	9	144	3
NMTAP	9	216	1
NMTAP	9	216	7
NMSTR	9	288	5
NMSI_	9	288	5	96	480	0
NMSTR	9	288	7
NMSI_	9	288	7	96	288	2
BRTAP	10	0	5
BRTAP	10	0	7
NMTAP	11	0	1
NMTAP	11	32	1
NMTAP	11	64	1
NMTAP	11	96	1
NMTAP	11	112	2
NMTAP	11	128	3
NMTAP	11	144	4
NMTAP	11	160	5
NMTAP	11	176	6
NMSTR	11	192	7
NMSI_	11	192	7	96	48	3
NMTAP	11	240	1
NMTAP	11	256	0
NMTAP	11	272	1
BRTAP	11	288	7
NMSTR	12	0	2
NMSI_	12	0	2	96	48	5
NMSTR	12	96	6
NMSI_	12	96	6	96	48	3
NMSTR	12	192	1
NMSI_	12	192	1	96	48	4
NMTAP	12	288	5
NMTAP	12	336	6
NMHLD	12	360	6	120
NMTAP	13	48	5
NMSTR	13	96	4
NMSI_	13	96	4	96	48	1
NMSI_	13	96	4	96	48	7
NMTAP	13	192	4
NMHLD	13	288	2	72
NMTAP	13	288	6
NMSTR	13	336	4
NMSI_	13	336	4	96	48	0
NMTAP	13	360	4
NMTAP	14	48	3
NMHLD	14	96	2	72
NMSTR	14	144	1
NMSI_	14	144	1	96	48	6
NMTAP	14	168	1
NMTAP	14	240	4
NMTAP	14	288	3
NMTAP	14	336	2
NMTAP	14	336	5
NMTAP	15	0	1
NMTAP	15	0	4
NMTAP	15	48	0
NMTAP	15	48	3
NMTAP	15	96	1
NMTAP	15	96	4
NMSTR	15	144	2
NMSXR	15	144	2	96	96	2
NMSTR	15	144	3
NMSXL	15	144	3	96	96	2
NMTAP	15	168	2
NMTAP	15	168	3
NMSTR	16	0	5
NMSI_	16	0	5	96	48	2
NMSTR	16	96	1
NMSI_	16	96	1	96	48	4
NMSTR	16	192	6
NMSI_	16	192	6	96	48	3
NMTAP	16	288	2
NMTAP	16	336	1
NMHLD	16	360	1	120
NMTAP	17	48	2
NMSTR	17	96	3
NMSI_	17	96	3	96	48	0
NMSI_	17	96	3	96	48	6
NMTAP	17	144	3
NMTAP	17	168	3
NMTAP	17	288	1
NMHLD	17	288	5	72
NMSTR	17	336	3
NMSI_	17	336	3	96	48	7
NMTAP	17	360	3
NMTAP	18	48	4
NMHLD	18	96	5	72
NMSTR	18	144	6
NMSI_	18	144	6	96	48	1
NMTAP	18	168	6
NMTAP	18	240	3
NMTAP	18	288	4
NMTAP	18	336	2
NMTAP	18	336	5
NMTAP	19	0	3
NMTAP	19	0	6
NMTAP	19	48	2
NMTAP	19	48	5
NMTAP	19	96	1
NMTAP	19	96	4
NMTAP	19	144	0
NMTAP	19	144	3
NMSTR	19	168	0
NMSI_	19	168	0	96	48	5
NMSTR	19	168	3
NMSI_	19	168	3	96	48	6
BRTAP	20	0	3
BRTAP	20	0	4
NMHLD	20	48	2	72
NMTAP	20	96	1
NMHLD	20	120	1	72
NMTAP	20	168	0
NMHLD	20	192	0	72
NMTAP	20	240	1
NMHLD	20	264	1	72
NMTAP	20	312	2
NMTAP	20	336	2
NMTAP	21	0	3
NMTAP	21	0	4
NMHLD	21	48	5	72
NMTAP	21	96	6
NMHLD	21	120	6	72
NMTAP	21	168	7
NMHLD	21	192	7	72
NMTAP	21	240	6
NMHLD	21	264	6	72
NMTAP	21	312	5
NMTAP	21	336	5
NMTAP	22	0	3
NMTAP	22	0	4
NMHLD	22	48	2	72
NMTAP	22	96	0
NMHLD	22	120	0	72
NMTAP	22	168	7
NMHLD	22	192	7	72
NMTAP	22	240	5
NMHLD	22	264	5	72
NMTAP	22	312	4
NMTAP	22	336	4
BRSTR	23	0	2
NMSSR	23	0	2	96	48	6
BRSTR	23	0	3
NMSSL	23	0	3	96	48	7
NMTAP	23	96	2
NMTAP	23	96	3
NMSTR	23	192	0
NMSI_	23	192	0	96	48	3
NMSTR	23	192	5
NMSI_	23	192	5	96	48	2
NMTAP	23	224	0
NMTAP	23	224	5
NMTAP	23	256	0
NMTAP	23	256	5
BRTAP	23	288	0
BRTAP	23	288	5
NMTAP	24	0	6
NMTAP	24	0	7
NMTAP	24	72	3
NMTAP	24	72	4
NMTAP	24	144	0
NMSTR	24	144	1
NMSI_	24	144	1	96	48	4
NMSTR	24	192	7
NMSI_	24	192	7	96	48	4
BRTAP	24	240	1
BRTAP	24	288	7
NMTAP	24	336	3
NMTAP	25	0	2
NMTAP	25	0	3
NMTAP	25	48	0
NMTAP	25	48	1
NMTAP	25	96	6
NMTAP	25	96	7
NMTAP	25	144	4
NMTAP	25	144	5
BRTAP	25	168	3
BRTAP	25	168	6
NMSTR	25	240	0
NMSUR	25	240	0	96	48	5
NMSTR	25	240	1
NMSCR	25	240	1	96	48	4
NMTAP	25	288	6
NMTAP	25	288	7
NMTAP	25	336	0
NMTAP	25	336	1
NMSTR	26	48	6
NMSCL	26	48	6	96	48	3
NMSTR	26	48	7
NMSUL	26	48	7	96	48	2
NMTAP	26	96	0
NMTAP	26	96	1
NMTAP	26	144	6
NMTAP	26	144	7
NMTAP	26	240	1
NMTAP	26	240	5
NMTAP	26	288	2
NMTAP	26	288	6
NMTAP	26	336	3
NMTAP	26	336	7
NMSTR	27	0	0
NMSI_	27	0	0	96	48	5
NMSTR	27	0	4
NMSI_	27	0	4	96	48	1
NMTAP	27	96	0
NMTAP	27	96	4
NMSTR	27	192	2
NMSI_	27	192	2	96	48	7
NMSTR	27	240	3
NMSI_	27	240	3	96	48	6
NMTAP	27	288	2
NMTAP	27	336	3
NMTAP	28	0	1
NMTAP	28	72	3
NMTAP	28	72	4
NMSTR	28	144	6
NMSI_	28	144	6	96	48	3
NMTAP	28	144	7
NMSTR	28	192	0
NMSI_	28	192	0	96	48	3
BRTAP	28	240	6
BRTAP	28	288	0
NMTAP	28	336	4
NMTAP	29	0	2
NMSTR	29	0	5
NMSCR	29	0	5	96	48	1
NMSTR	29	48	1
NMSV_	29	48	1	96	48	3
NMTAP	29	96	3
NMTAP	29	144	2
BRTAP	29	168	2
NMSTR	29	240	0
NMSUR	29	240	0	96	48	5
NMSTR	29	240	1
NMSCR	29	240	1	96	48	4
NMTAP	29	288	6
NMTAP	29	288	7
NMTAP	29	336	0
NMTAP	29	336	1
NMSTR	30	48	6
NMSCL	30	48	6	96	48	3
NMSTR	30	48	7
NMSUL	30	48	7	96	48	2
NMTAP	30	96	0
NMTAP	30	96	1
NMTAP	30	144	6
NMTAP	30	144	7
NMTAP	30	240	1
NMTAP	30	240	4
NMTAP	30	288	2
NMTAP	30	288	5
NMTAP	30	336	3
NMTAP	30	336	6
NMTAP	31	0	4
NMTAP	31	0	7
NMTAP	31	48	2
NMTAP	31	48	5
NMTAP	31	96	0
NMTAP	31	96	3
NMTAP	31	144	2
NMTAP	31	144	5
NMTAP	31	168	1
NMTAP	31	168	6
NMTAP	31	240	5
NMTAP	31	264	4
NMTAP	31	288	5
NMTAP	31	312	4
NMTAP	31	336	3
NMTAP	31	336	6
NMHLD	32	0	2	48
NMHLD	32	0	5	48
NMHLD	32	72	1	48
NMHLD	32	72	4	48
NMHLD	32	144	0	48
NMHLD	32	144	3	48
BRTAP	32	240	2
BRTAP	32	240	4
BRTAP	32	288	0
BRTAP	32	288	6
NMHLD	32	336	1	96
NMTAP	32	336	7
NMHLD	33	0	3	144
NMHLD	33	96	4	48
BRTAP	33	168	3
BRTAP	33	168	4
NMSTR	33	240	6
NMSLL	33	240	6	96	48	2
NMSTR	33	240	7
NMSLL	33	240	7	96	48	3
NMTAP	33	288	0
NMTAP	33	288	1
NMTAP	33	336	6
NMTAP	33	336	7
NMSTR	34	48	0
NMSLR	34	48	0	96	48	4
NMSTR	34	48	1
NMSLR	34	48	1	96	48	5
NMTAP	34	96	6
NMTAP	34	96	7
NMTAP	34	144	0
NMTAP	34	144	1
NMTAP	34	240	2
NMTAP	34	240	6
NMTAP	34	288	1
NMTAP	34	288	5
NMTAP	34	336	0
NMTAP	34	336	4
NMSTR	35	0	3
NMSCR	35	0	3	96	48	6
NMSTR	35	0	7
NMSCR	35	0	7	96	48	2
NMTAP	35	96	3
NMTAP	35	96	7
NMSTR	35	192	1
NMSI_	35	192	1	96	48	4
NMSTR	35	240	0
NMSI_	35	240	0	96	48	5
NMTAP	35	288	1
NMTAP	35	336	0
NMSTR	36	0	3
NMSXR	36	0	3	96	72	3
NMSTR	36	72	3
NMSXL	36	72	3	96	72	3
NMTAP	36	72	4
NMTAP	36	144	6
BRTAP	36	240	0
BRTAP	36	288	1
BRSTR	36	288	7
NMSCL	36	288	7	96	96	4
NMSTR	37	0	4
NMSI_	37	0	4	96	48	1
NMSTR	37	48	1
NMSI_	37	48	1	96	48	5
NMSTR	37	96	5
NMSI_	37	96	5	96	48	0
NMSTR	37	144	0
NMSI_	37	144	0	96	48	4
NMTAP	37	240	3
NMTAP	37	288	2
NMTAP	37	336	1
NMSTR	37	360	1
NMSXR	37	360	1	96	168	6
NMHLD	38	0	7	96
NMTAP	38	48	1
NMHLD	38	144	5	192
NMTAP	38	288	7
NMTAP	38	336	1
NMTAP	38	360	1
BRTAP	39	0	4
NMTAP	39	48	2
BRTAP	39	72	5
NMTAP	39	96	3
NMTAP	39	144	5
BRTAP	39	144	6
BRSTR	39	192	4
NMSI_	39	192	4	96	48	0
BRSTR	39	192	7
NMSI_	39	192	7	96	48	3
BRTAP	39	224	4
BRTAP	39	224	7
BRTAP	39	256	4
BRTAP	39	256	7
BRTAP	39	288	4
BRTAP	39	288	7
BRSTR	40	0	6
NMSLL	40	0	6	96	96	2
NMTAP	40	96	2
NMSTR	40	192	0
NMSI_	40	192	0	96	48	4
NMSTR	40	240	4
NMSI_	40	240	4	96	48	0
NMTAP	40	288	0
NMSTR	41	0	5
NMSI_	41	0	5	96	48	7
NMSTR	41	48	7
NMSI_	41	48	7	96	48	3
NMSTR	41	96	3
NMSI_	41	96	3	96	48	1
NMSTR	41	192	0
NMSUL	41	192	0	96	48	3
NMSTR	41	288	4
NMSI_	41	288	4	96	48	7
NMSTR	42	0	1
NMSLR	42	0	1	96	96	6
NMTAP	42	96	6
NMSTR	42	192	7
NMSI_	42	192	7	96	48	3
NMSTR	42	240	3
NMSI_	42	240	3	96	48	7
NMTAP	42	288	7
NMSTR	43	0	4
NMSI_	43	0	4	96	48	6
NMSTR	43	48	6
NMSI_	43	48	6	96	48	2
NMSTR	43	96	2
NMSI_	43	96	2	96	48	0
NMSTR	43	192	7
NMSUL	43	192	7	96	48	2
NMSTR	43	288	3
NMSI_	43	288	3	96	48	6
BRSTR	44	0	0
NMSCL	44	0	0	96	288	0

T_REC_TAP	247
T_REC_BRK	33
T_REC_XTP	0
T_REC_BXX	0
T_REC_HLD	29
T_REC_XHO	0
T_REC_BHO	0
T_REC_BXH	0
T_REC_STR	75
T_REC_BST	7
T_REC_XST	0
T_REC_XBS	0
T_REC_TTP	0
T_REC_THO	0
T_REC_SLD	84
T_REC_BSL	0
T_REC_ALL	475
T_NUM_TAP	322
T_NUM_BRK	40
T_NUM_HLD	29
T_NUM_SLD	84
T_NUM_ALL	475
T_JUDGE_TAP	362
T_JUDGE_HLD	56
T_JUDGE_SLD	84
T_JUDGE_ALL	502
TTM_EACHPAIRS	114
TTM_SCR_TAP	161000
TTM_SCR_BRK	104000
TTM_SCR_HLD	29000
TTM_SCR_SLD	126000
TTM_SCR_ALL	420000
TTM_SCR_S	403550
TTM_SCR_SS	416000
TTM_RAT_ACV	10096

