VERSION	0.00.00	1.03.00
FES_MODE	0
BPM_DEF	132.000	132.000	132.000	132.000
MET_DEF	4	4
RESOLUTION	384
CLK_DEF	384
COMPATIBLE_CODE	MA2

BPM	0	0	132.000
MET	0	0	4	4

TAP	2	0	0
TAP	2	72	7
TAP	2	144	6
STR	2	216	5
SCR	2	216	5	96	24	0
TAP	3	0	1
TAP	3	72	2
TAP	3	144	3
STR	3	216	4
SCL	3	216	4	96	24	1
TAP	4	0	5
TAP	4	72	6
TAP	4	144	7
STR	4	216	0
SCL	4	216	0	96	24	5
TAP	5	0	2
TAP	5	0	4
TAP	5	72	0
TAP	5	72	4
TAP	5	144	3
TAP	5	144	7
TAP	5	216	3
TAP	5	216	5
BRK	5	288	4
BRK	5	288	6
TAP	6	0	2
TAP	6	72	4
HLD	6	144	6	144
STR	6	216	0
SI_	6	216	0	96	24	4
TAP	7	0	3
TAP	7	72	5
HLD	7	144	7	144
STR	7	216	1
SI_	7	216	1	96	24	6
TAP	8	0	2
TAP	8	0	6
TAP	8	72	1
TAP	8	72	5
TAP	8	144	0
TAP	8	144	7
STR	8	216	3
SCR	8	216	3	96	24	6
STR	8	216	7
SCR	8	216	7	96	24	2
TAP	9	0	0
TAP	9	0	2
TAP	9	72	2
TAP	9	72	6
TAP	9	144	5
TAP	9	144	7
TAP	9	216	1
TAP	9	216	5
STR	9	288	5
SI_	9	288	5	96	672	0
STR	9	288	7
SI_	9	288	7	96	384	2
TAP	12	0	1
TAP	12	0	7
TAP	12	96	0
TAP	12	96	4
TAP	12	192	2
TAP	12	192	6
TAP	12	288	1
TAP	12	288	5
TAP	12	336	2
TAP	12	336	6
TAP	12	360	1
TAP	12	360	5
TAP	13	48	2
TAP	13	48	6
HLD	13	96	3	144
HLD	13	96	7	144
TAP	13	288	0
TAP	13	336	4
HLD	13	360	4	72
TAP	14	48	3
TAP	14	96	2
TAP	14	144	6
HLD	14	168	6	72
TAP	14	240	5
TAP	14	288	2
TAP	14	288	3
TAP	14	336	1
TAP	14	336	4
TAP	15	0	0
TAP	15	0	5
STR	15	48	6
SI_	15	48	6	96	24	2
STR	15	96	7
SI_	15	96	7	96	24	3
TAP	15	336	5
TAP	15	360	5
STR	16	0	3
SCR	16	0	3	96	48	6
STR	16	96	1
SCR	16	96	1	96	48	4
STR	16	192	7
SCR	16	192	7	96	48	2
TAP	16	336	3
HLD	16	360	4	192
TAP	17	48	5
TAP	17	96	6
TAP	17	144	7
HLD	17	168	7	120
TAP	17	288	6
TAP	17	336	7
HLD	17	360	0	72
TAP	18	48	1
TAP	18	96	4
TAP	18	144	5
HLD	18	168	4	72
TAP	18	240	5
TAP	18	288	3
TAP	18	288	7
TAP	18	336	2
TAP	18	336	6
TAP	19	0	1
TAP	19	0	5
TAP	19	48	0
TAP	19	48	4
TAP	19	96	1
TAP	19	96	5
TAP	19	144	2
TAP	19	144	6
HLD	19	168	3	72
HLD	19	168	7	72
BRK	19	288	0
BRK	19	288	4
TAP	20	0	4
TAP	20	48	3
STR	20	120	0
SI_	20	120	0	96	24	4
STR	20	192	4
SI_	20	192	4	96	24	1
STR	20	264	1
SI_	20	264	1	96	24	6
TAP	21	48	7
STR	21	120	0
SCL	21	120	0	96	24	5
STR	21	192	5
SI_	21	192	5	96	24	2
STR	21	264	2
SCL	21	264	2	96	24	7
TAP	22	48	0
STR	22	120	7
SI_	22	120	7	96	24	3
STR	22	192	6
SI_	22	192	6	96	24	2
STR	22	264	5
SI_	22	264	5	96	24	1
TAP	23	48	0
STR	23	120	0
SI_	23	120	0	96	24	4
STR	23	192	1
SI_	23	192	1	96	24	5
STR	23	264	2
SI_	23	264	2	96	24	6
STR	24	0	0
SCL	24	0	0	96	48	5
STR	24	72	2
SCR	24	72	2	96	48	5
STR	24	336	6
SI_	24	336	6	96	24	3
STR	25	0	2
SI_	25	0	2	96	24	7
BRK	25	144	0
BRK	25	144	4
BRK	25	168	1
BRK	25	168	5
STR	25	240	7
SCR	25	240	7	96	48	2
STR	25	288	7
SI_	25	288	7	96	24	3
STR	26	48	1
SI_	26	48	1	96	48	5
STR	26	96	0
SCL	26	96	0	96	24	5
TAP	26	240	2
TAP	26	240	6
TAP	26	288	1
TAP	26	288	5
TAP	26	336	0
TAP	26	336	4
STR	27	0	0
SI_	27	0	0	96	48	3
STR	27	48	4
SI_	27	48	4	96	96	7
TAP	27	240	0
STR	27	288	0
SI_	27	288	0	96	48	4
STR	27	336	0
SCL	27	336	0	96	48	5
STR	28	0	0
SCR	28	0	0	96	96	3
TAP	28	336	7
TAP	29	0	2
STR	29	48	7
SCR	29	48	7	96	48	2
STR	29	96	2
SI_	29	96	2	96	24	6
STR	29	240	3
SCL	29	240	3	96	48	0
STR	29	288	5
SCR	29	288	5	96	24	0
STR	30	48	1
SCR	30	48	1	96	48	4
STR	30	96	7
SCL	30	96	7	96	24	4
STR	30	240	2
SCL	30	240	2	96	48	7
STR	30	288	7
SCL	30	288	7	96	96	4
TAP	31	96	3
TAP	31	144	2
TAP	31	144	6
BRK	31	168	1
BRK	31	168	5
TAP	31	240	0
STR	31	288	0
SI_	31	288	0	96	48	5
STR	31	336	5
SI_	31	336	5	96	48	2
STR	32	0	2
SI_	32	0	2	96	96	7
TAP	32	336	7
STR	33	0	0
SCL	33	0	0	96	96	5
TAP	33	96	1
TAP	33	144	1
TAP	33	168	1
STR	33	240	2
SI_	33	240	2	96	24	6
STR	33	288	5
SI_	33	288	5	96	24	2
STR	34	48	1
SI_	34	48	1	96	24	5
STR	34	96	6
SI_	34	96	6	96	24	1
TAP	34	240	5
TAP	34	288	6
TAP	34	336	7
TAP	35	0	0
STR	35	0	5
SCR	35	0	5	96	24	0
TAP	35	96	1
BRK	35	144	1
TAP	35	240	4
STR	35	288	4
SI_	35	288	4	96	48	1
STR	35	336	1
SI_	35	336	1	96	48	6
STR	36	0	6
SI_	36	0	6	96	96	3
STR	37	0	0
SI_	37	0	0	96	96	4
STR	37	48	7
SI_	37	48	7	96	48	3
TAP	37	96	0
TAP	37	144	7
TAP	37	240	0
TAP	37	240	1
TAP	37	288	4
TAP	37	288	5
TAP	37	336	2
TAP	37	336	3
TAP	37	360	4
TAP	37	360	5
HLD	38	48	2	240
HLD	38	48	6	240
TAP	39	0	1
TAP	39	0	5
TAP	39	72	0
TAP	39	72	4
TAP	39	144	3
TAP	39	144	7
TAP	39	192	3
TAP	39	192	7
TAP	39	224	0
TAP	39	224	4
TAP	39	256	1
TAP	39	256	5
BRK	39	288	2
BRK	39	288	6
STR	40	0	7
SI_	40	0	7	96	48	4
STR	40	192	5
SI_	40	192	5	96	48	2
STR	41	0	0
SI_	41	0	0	96	48	3
STR	41	192	4
SI_	41	192	4	96	48	7
STR	41	240	7
SI_	41	240	7	96	48	3
STR	41	288	3
SI_	41	288	3	96	48	0
STR	42	0	7
SI_	42	0	7	96	48	4
STR	42	192	1
SI_	42	192	1	96	48	5
STR	43	0	6
SI_	43	0	6	96	48	2
STR	43	96	0
SI_	43	96	0	96	48	4
STR	43	192	0
SI_	43	192	0	96	48	3
STR	43	288	0
SI_	43	288	0	96	288	5

T_REC_TAP	135
T_REC_BRK	13
T_REC_XTP	0
T_REC_HLD	14
T_REC_XHO	0
T_REC_STR	73
T_REC_BST	0
T_REC_XST	0
T_REC_TTP	0
T_REC_THO	0
T_REC_SLD	73
T_REC_ALL	308
T_NUM_TAP	208
T_NUM_BRK	13
T_NUM_HLD	14
T_NUM_SLD	73
T_NUM_ALL	308
T_JUDGE_TAP	221
T_JUDGE_HLD	41
T_JUDGE_SLD	73
T_JUDGE_ALL	335
TTM_EACHPAIRS	53
TTM_SCR_TAP	104000
TTM_SCR_BRK	33800
TTM_SCR_HLD	14000
TTM_SCR_SLD	109500
TTM_SCR_ALL	261300
TTM_SCR_S	252200
TTM_SCR_SS	260000
TTM_RAT_ACV	10050

