VERSION	0.00.00	1.03.00
FES_MODE	0
BPM_DEF	132.000	132.000	132.000	132.000
MET_DEF	4	4
RESOLUTION	384
CLK_DEF	384
COMPATIBLE_CODE	MA2

BPM	0	0	132.000
MET	0	0	4	4

TAP	2	0	2
TAP	2	72	3
TAP	2	144	4
TAP	2	216	5
TAP	3	0	5
TAP	3	72	4
TAP	3	144	3
TAP	3	216	2
TAP	4	0	2
TAP	4	72	3
TAP	4	144	4
TAP	4	216	4
TAP	4	216	5
TAP	5	0	5
TAP	5	72	4
TAP	5	144	3
STR	5	216	2
SCR	5	216	2	96	48	5
TAP	5	216	3
TAP	6	0	1
TAP	6	72	2
TAP	6	144	3
TAP	6	144	4
TAP	6	216	4
HLD	6	216	5	168
TAP	6	288	6
TAP	6	336	6
TAP	7	0	6
TAP	7	72	5
TAP	7	144	3
TAP	7	144	4
HLD	7	216	2	168
TAP	7	216	3
TAP	7	288	1
TAP	7	336	1
TAP	8	0	1
TAP	8	72	2
TAP	8	72	3
TAP	8	144	3
TAP	8	144	5
HLD	8	216	4	168
TAP	8	216	6
TAP	8	288	6
TAP	8	336	6
TAP	9	0	6
TAP	9	72	4
TAP	9	72	5
TAP	9	144	2
TAP	9	144	4
TAP	9	216	1
TAP	9	216	3
HLD	9	288	2	672
HLD	10	0	5	576
TAP	11	240	3
TAP	11	256	4
TAP	11	272	3
BRK	11	288	6
HLD	12	0	5	96
TAP	12	48	6
HLD	12	96	6	96
TAP	12	144	7
HLD	12	192	7	96
TAP	12	240	0
HLD	12	288	0	72
TAP	12	336	1
HLD	12	360	1	72
HLD	13	48	2	144
HLD	13	96	5	96
TAP	13	288	5
TAP	13	336	5
TAP	13	360	4
TAP	14	48	2
TAP	14	96	2
TAP	14	144	2
TAP	14	168	3
TAP	14	240	4
TAP	14	288	4
TAP	14	336	4
TAP	15	0	6
TAP	15	48	6
TAP	15	96	0
TAP	15	144	0
TAP	15	192	7
TAP	15	216	6
TAP	15	240	7
TAP	15	264	6
TAP	15	288	1
TAP	15	312	0
TAP	15	336	1
HLD	16	0	2	96
TAP	16	48	1
HLD	16	96	1	96
TAP	16	144	0
HLD	16	192	0	96
TAP	16	240	7
HLD	16	288	7	72
TAP	16	336	6
HLD	16	360	6	72
HLD	17	48	5	120
TAP	17	96	2
TAP	17	144	2
TAP	17	168	2
TAP	17	288	2
TAP	17	336	2
TAP	17	360	3
TAP	18	48	5
TAP	18	96	5
TAP	18	144	5
TAP	18	168	4
TAP	18	240	4
TAP	18	288	3
TAP	18	336	3
TAP	19	0	1
TAP	19	48	1
TAP	19	96	7
TAP	19	144	7
TAP	19	192	3
TAP	19	216	2
TAP	19	240	3
TAP	19	264	2
TAP	19	288	5
TAP	19	312	4
TAP	19	336	5
TAP	20	0	0
TAP	20	48	0
TAP	20	96	6
TAP	20	120	7
TAP	20	144	6
TAP	20	192	5
TAP	20	240	5
TAP	20	264	4
TAP	20	312	4
TAP	20	336	3
TAP	21	0	7
TAP	21	48	7
TAP	21	96	1
TAP	21	120	0
TAP	21	144	1
TAP	21	192	2
TAP	21	240	2
TAP	21	264	3
TAP	21	312	3
TAP	21	336	4
TAP	22	0	5
TAP	22	48	5
TAP	22	96	3
TAP	22	120	4
TAP	22	144	3
TAP	22	192	2
TAP	22	240	2
TAP	22	264	1
TAP	22	312	1
TAP	22	336	0
TAP	23	0	4
TAP	23	48	4
TAP	23	96	2
TAP	23	120	3
TAP	23	144	2
TAP	23	192	5
TAP	23	224	6
TAP	23	256	7
TAP	23	288	0
TAP	23	336	1
TAP	24	0	2
TAP	24	0	4
TAP	24	72	4
TAP	24	72	6
HLD	24	144	3	96
HLD	24	144	5	96
STR	24	336	5
SCL	24	336	5	96	48	2
STR	25	48	1
SCR	25	48	1	96	48	4
STR	25	240	6
SCL	25	240	6	96	48	3
TAP	25	288	6
TAP	25	336	7
TAP	25	360	7
STR	26	48	1
SCR	26	48	1	96	48	4
TAP	26	96	1
TAP	26	144	0
TAP	26	168	0
TAP	26	240	5
TAP	26	288	6
TAP	26	336	7
HLD	27	0	7	144
STR	27	96	3
SCL	27	96	3	96	48	0
TAP	27	144	3
TAP	27	240	5
TAP	27	288	4
TAP	27	336	3
TAP	28	0	0
TAP	28	0	6
TAP	28	72	0
TAP	28	72	2
STR	28	144	1
SCR	28	144	1	96	48	4
STR	28	144	7
SCL	28	144	7	96	48	4
STR	28	336	2
SCR	28	336	2	96	48	5
STR	29	48	6
SCL	29	48	6	96	48	3
STR	29	240	5
SCR	29	240	5	96	48	0
TAP	29	288	5
TAP	29	336	4
TAP	29	360	4
STR	30	48	2
SCL	30	48	2	96	48	7
TAP	30	96	2
TAP	30	144	3
TAP	30	168	3
TAP	30	240	3
TAP	30	288	2
TAP	30	336	1
HLD	31	0	0	144
STR	31	96	4
SCR	31	96	4	96	48	7
TAP	31	144	4
TAP	31	240	3
TAP	31	288	2
TAP	31	336	1
TAP	32	0	7
STR	32	72	6
SI_	32	72	6	96	48	3
TAP	32	216	1
TAP	32	264	1
TAP	32	288	0
TAP	32	336	0
TAP	32	360	1
TAP	33	0	0
STR	33	72	1
SI_	33	72	1	96	48	4
TAP	33	216	6
TAP	33	264	6
TAP	33	288	4
TAP	33	336	4
TAP	33	360	5
TAP	34	0	4
STR	34	72	5
SCR	34	72	5	96	48	0
TAP	34	216	2
TAP	34	264	2
TAP	34	288	3
TAP	34	336	3
TAP	34	360	2
TAP	35	0	3
STR	35	72	2
SCL	35	72	2	96	48	7
TAP	35	216	5
TAP	35	264	5
TAP	35	288	4
TAP	35	336	4
TAP	35	360	5
TAP	36	0	4
TAP	36	72	5
STR	36	144	4
SI_	36	144	4	96	144	1
HLD	36	288	4	96
TAP	37	0	0
TAP	37	48	7
TAP	37	96	6
TAP	37	144	5
TAP	37	240	2
TAP	37	288	1
STR	37	336	0
SI_	37	336	0	96	96	4
TAP	37	360	0
STR	38	48	6
SI_	38	48	6	96	96	2
TAP	39	0	5
TAP	39	72	4
TAP	39	144	3
BRK	39	192	2
BRK	39	192	6
BRK	39	224	1
BRK	39	224	5
BRK	39	256	0
BRK	39	256	4
STR	39	288	3
SCR	39	288	3	96	48	6
STR	39	288	7
SCR	39	288	7	96	48	2
TAP	40	96	1
TAP	40	192	3
TAP	40	288	5
TAP	41	0	7
TAP	41	48	7
TAP	41	96	1
TAP	41	144	1
TAP	41	192	3
TAP	41	240	3
TAP	41	288	5
TAP	41	336	5
HLD	42	0	7	96
TAP	42	48	1
HLD	42	96	1	96
TAP	42	144	3
HLD	42	192	3	96
TAP	42	240	5
HLD	42	288	5	96
TAP	42	336	7
HLD	43	0	7	96
TAP	43	48	0
HLD	43	96	1	96
TAP	43	144	2
HLD	43	192	3	96
TAP	43	240	4
HLD	43	288	5	96
STR	43	336	6
SI_	43	336	6	96	336	2

T_REC_TAP	230
T_REC_BRK	7
T_REC_XTP	0
T_REC_HLD	31
T_REC_XHO	0
T_REC_STR	23
T_REC_BST	0
T_REC_XST	0
T_REC_TTP	0
T_REC_THO	0
T_REC_SLD	23
T_REC_ALL	314
T_NUM_TAP	253
T_NUM_BRK	7
T_NUM_HLD	31
T_NUM_SLD	23
T_NUM_ALL	314
T_JUDGE_TAP	260
T_JUDGE_HLD	94
T_JUDGE_SLD	23
T_JUDGE_ALL	377
TTM_EACHPAIRS	22
TTM_SCR_TAP	126500
TTM_SCR_BRK	18200
TTM_SCR_HLD	31000
TTM_SCR_SLD	34500
TTM_SCR_ALL	210200
TTM_SCR_S	203250
TTM_SCR_SS	209500
TTM_RAT_ACV	10033

