VERSION	0.00.00	1.03.00
FES_MODE	0
BPM_DEF	132.000	132.000	132.000	132.000
MET_DEF	4	4
RESOLUTION	384
CLK_DEF	384
COMPATIBLE_CODE	MA2

BPM	0	0	132.000
MET	0	0	4	4

TAP	2	0	7
TAP	2	96	0
TAP	2	192	1
TAP	2	288	2
TAP	3	0	3
TAP	3	96	4
TAP	3	192	5
TAP	3	288	6
TAP	4	0	7
TAP	4	96	6
TAP	4	192	5
TAP	4	288	4
TAP	5	0	3
TAP	5	96	2
TAP	5	192	1
TAP	5	288	0
TAP	6	0	7
TAP	6	96	2
TAP	6	192	5
TAP	6	288	0
TAP	7	0	3
TAP	7	96	6
TAP	7	192	1
TAP	7	288	4
TAP	8	0	1
TAP	8	96	6
TAP	8	192	3
TAP	8	288	0
TAP	9	0	5
TAP	9	96	2
TAP	9	192	7
TAP	9	288	4
HLD	10	0	1	672
BRK	11	288	0
TAP	12	0	7
TAP	12	96	6
TAP	12	96	7
TAP	12	192	7
TAP	12	288	0
TAP	12	288	7
TAP	13	0	1
TAP	13	96	1
TAP	13	96	2
TAP	13	192	1
TAP	13	288	0
TAP	13	288	1
TAP	14	0	7
TAP	14	96	0
TAP	14	96	6
TAP	14	192	1
TAP	14	288	0
TAP	14	288	2
TAP	15	0	7
TAP	15	96	5
TAP	15	192	3
BRK	15	288	1
TAP	16	0	0
TAP	16	96	0
TAP	16	96	7
TAP	16	192	0
TAP	16	288	0
TAP	16	288	1
TAP	17	0	1
TAP	17	96	1
TAP	17	96	2
TAP	17	192	2
TAP	17	288	2
TAP	17	288	3
TAP	18	0	1
TAP	18	96	1
TAP	18	192	7
TAP	18	288	7
TAP	19	0	5
TAP	19	96	5
TAP	19	192	3
TAP	19	288	3
HLD	20	0	4	192
HLD	20	191	5	193
HLD	21	0	6	288
HLD	21	144	0	144
STR	22	0	2
SCL	22	0	2	96	96	7
STR	23	0	7
SCR	23	0	7	96	96	2
TAP	24	0	6
TAP	24	0	7
TAP	24	72	5
TAP	24	72	6
HLD	24	144	4	144
HLD	24	144	5	144
TAP	25	0	6
TAP	25	0	7
TAP	25	72	0
TAP	25	72	7
HLD	25	144	0	144
HLD	25	144	1	144
TAP	26	0	2
TAP	26	96	2
TAP	26	192	3
TAP	26	288	3
TAP	27	0	0
TAP	27	96	0
TAP	27	192	7
TAP	27	288	7
TAP	28	0	5
TAP	28	0	6
TAP	28	72	4
TAP	28	72	5
HLD	28	144	3	144
HLD	28	144	4	144
TAP	29	0	0
TAP	29	0	7
TAP	29	72	0
TAP	29	72	1
HLD	29	144	1	144
HLD	29	144	2	144
TAP	30	0	0
TAP	30	96	0
TAP	30	192	7
TAP	30	288	7
TAP	31	0	1
TAP	31	96	1
TAP	31	192	2
TAP	31	288	2
STR	32	0	3
SI_	32	0	3	96	96	0
STR	32	0	4
SI_	32	0	4	96	96	7
STR	33	0	1
SI_	33	0	1	96	96	5
STR	33	0	2
SI_	33	0	2	96	96	6
TAP	34	0	4
TAP	34	96	4
TAP	34	192	2
TAP	34	288	2
TAP	35	0	0
TAP	35	96	0
TAP	35	192	6
TAP	35	288	6
TAP	36	0	0
TAP	36	0	1
TAP	36	72	1
TAP	36	72	2
HLD	36	144	2	144
HLD	36	144	3	144
TAP	37	0	0
TAP	37	48	7
TAP	37	96	6
HLD	37	144	5	144
HLD	38	0	0	144
HLD	38	144	1	144
STR	39	0	2
SI_	39	0	2	96	96	7
BRK	39	288	0
TAP	40	0	1
TAP	40	96	1
TAP	40	192	2
TAP	40	288	2
TAP	41	0	1
TAP	41	96	1
TAP	41	192	0
TAP	41	288	0
TAP	41	288	7
TAP	42	0	6
TAP	42	96	6
TAP	42	192	5
TAP	42	288	5
TAP	43	0	6
TAP	43	96	6
TAP	43	192	7
TAP	43	288	0
TAP	43	288	7
HLD	44	0	1	384

T_REC_TAP	138
T_REC_BRK	3
T_REC_XTP	0
T_REC_HLD	19
T_REC_XHO	0
T_REC_STR	7
T_REC_BST	0
T_REC_XST	0
T_REC_TTP	0
T_REC_THO	0
T_REC_SLD	7
T_REC_ALL	174
T_NUM_TAP	145
T_NUM_BRK	3
T_NUM_HLD	19
T_NUM_SLD	7
T_NUM_ALL	174
T_JUDGE_TAP	148
T_JUDGE_HLD	79
T_JUDGE_SLD	7
T_JUDGE_ALL	234
TTM_EACHPAIRS	29
TTM_SCR_TAP	72500
TTM_SCR_BRK	7800
TTM_SCR_HLD	19000
TTM_SCR_SLD	10500
TTM_SCR_ALL	109800
TTM_SCR_S	106250
TTM_SCR_SS	109500
TTM_RAT_ACV	10027

