VERSION	0.00.00	1.03.00
FES_MODE	0
BPM_DEF	132.000	132.000	132.000	132.000
MET_DEF	4	4
RESOLUTION	384
CLK_DEF	384
COMPATIBLE_CODE	MA2

BPM	0	0	132.000
MET	0	0	4	4

TAP	2	0	1
TAP	2	192	1
TAP	3	0	3
TAP	3	192	3
TAP	4	0	5
TAP	4	192	5
TAP	5	0	7
TAP	5	192	7
TAP	6	0	0
TAP	6	96	0
TAP	6	192	0
TAP	7	0	6
TAP	7	96	6
TAP	7	192	6
TAP	8	0	0
TAP	8	96	0
TAP	8	192	0
TAP	9	0	2
TAP	9	96	2
TAP	9	192	2
STR	9	288	3
SI_	9	288	3	96	192	7
BRK	11	288	7
TAP	12	0	6
TAP	12	96	6
TAP	12	192	5
TAP	12	288	5
TAP	13	0	4
TAP	13	96	4
TAP	13	192	3
TAP	13	288	3
TAP	14	0	5
TAP	14	96	5
TAP	14	96	6
TAP	14	192	5
TAP	14	288	4
TAP	14	288	5
TAP	15	0	5
TAP	15	96	5
TAP	15	96	6
TAP	15	192	7
TAP	15	288	0
TAP	15	288	7
TAP	16	0	1
TAP	16	96	1
TAP	16	192	2
TAP	16	288	2
TAP	17	0	0
TAP	17	96	0
TAP	17	192	7
TAP	17	288	7
TAP	18	0	6
TAP	18	96	5
TAP	18	96	6
TAP	18	192	5
TAP	18	288	4
TAP	18	288	5
TAP	19	0	6
TAP	19	96	6
TAP	19	96	7
TAP	19	192	0
BRK	19	288	0
BRK	19	288	1
STR	20	0	7
SI_	20	0	7	96	96	4
STR	21	0	3
SI_	21	0	3	96	96	0
HLD	22	0	1	288
HLD	23	0	2	288
TAP	24	0	1
TAP	24	72	1
TAP	24	144	1
TAP	25	0	7
TAP	25	72	7
TAP	25	144	7
TAP	26	0	6
TAP	26	96	6
TAP	26	192	5
TAP	26	288	5
TAP	27	0	7
TAP	27	96	7
TAP	27	192	0
TAP	27	288	0
TAP	28	0	1
TAP	28	72	1
TAP	28	144	1
TAP	29	0	3
TAP	29	72	3
TAP	29	144	3
HLD	30	0	0	288
HLD	31	0	7	288
TAP	32	0	6
TAP	32	72	6
TAP	32	144	6
TAP	33	0	5
TAP	33	72	5
TAP	33	144	5
TAP	34	0	7
TAP	34	96	7
TAP	34	192	0
TAP	34	288	0
TAP	35	0	1
TAP	35	96	1
TAP	35	192	2
TAP	35	288	2
TAP	36	0	0
TAP	36	72	0
TAP	36	144	0
TAP	37	0	6
TAP	37	72	6
TAP	37	144	6
STR	38	0	5
SI_	38	0	5	96	192	0
BRK	39	288	0
BRK	39	288	7
TAP	40	96	1
TAP	40	288	1
TAP	41	96	2
TAP	41	288	2
TAP	42	96	1
TAP	42	288	1
TAP	43	96	0
TAP	43	288	0
HLD	44	0	7	384

T_REC_TAP	106
T_REC_BRK	5
T_REC_XTP	0
T_REC_HLD	5
T_REC_XHO	0
T_REC_STR	4
T_REC_BST	0
T_REC_XST	0
T_REC_TTP	0
T_REC_THO	0
T_REC_SLD	4
T_REC_ALL	124
T_NUM_TAP	110
T_NUM_BRK	5
T_NUM_HLD	5
T_NUM_SLD	4
T_NUM_ALL	124
T_JUDGE_TAP	115
T_JUDGE_HLD	32
T_JUDGE_SLD	4
T_JUDGE_ALL	151
TTM_EACHPAIRS	9
TTM_SCR_TAP	55000
TTM_SCR_BRK	13000
TTM_SCR_HLD	5000
TTM_SCR_SLD	6000
TTM_SCR_ALL	79000
TTM_SCR_S	76150
TTM_SCR_SS	78500
TTM_RAT_ACV	10063

