VERSION	0.00.00	1.03.00
FES_MODE	0
BPM_DEF	162.000	162.000	162.000	162.000
MET_DEF	4	4
RESOLUTION	384
CLK_DEF	384
COMPATIBLE_CODE	MA2

BPM	0	0	162.000
MET	0	0	4	4

STR	1	0	1
SI_	1	0	1	96	576	5
HLD	1	0	6	672
HLD	3	0	2	672
STR	3	0	7
SI_	3	0	7	96	576	3
HLD	5	0	1	96
TAP	5	96	0
HLD	5	192	0	96
TAP	5	288	1
TAP	5	336	0
TAP	5	336	1
HLD	6	0	6	96
TAP	6	96	7
HLD	6	192	7	96
TAP	6	288	6
TAP	6	336	6
TAP	6	336	7
HLD	7	0	3	96
TAP	7	96	4
HLD	7	192	4	96
TAP	7	288	3
TAP	7	336	3
TAP	7	336	4
HLD	8	0	5	96
TAP	8	96	6
HLD	8	192	2	96
TAP	8	288	1
TAP	8	312	0
TAP	8	336	7
TAP	9	0	2
TAP	9	48	3
TAP	9	96	2
TAP	9	144	3
TAP	9	192	4
TAP	9	240	3
TAP	9	288	4
TAP	9	336	5
TAP	10	0	4
TAP	10	48	5
TAP	10	96	3
TAP	10	144	5
STR	10	192	3
SI_	10	192	3	96	48	6
STR	10	240	4
SI_	10	240	4	96	48	1
TAP	11	0	6
TAP	11	48	7
TAP	11	96	6
TAP	11	144	0
TAP	11	192	6
TAP	11	240	1
TAP	11	288	6
TAP	11	336	0
TAP	12	0	1
TAP	12	48	0
TAP	12	96	1
TAP	12	144	7
TAP	12	192	1
TAP	12	240	6
TAP	12	288	1
TAP	12	336	7
TAP	13	0	1
TAP	13	0	5
TAP	13	72	1
TAP	13	72	4
TAP	13	144	1
TAP	13	144	3
TAP	13	240	3
TAP	13	240	6
TAP	13	288	2
TAP	13	288	7
TAP	13	336	0
TAP	13	336	1
TAP	14	0	0
TAP	14	24	0
TAP	14	48	0
TAP	14	96	6
TAP	14	120	6
TAP	14	144	6
TAP	14	192	2
TAP	14	216	2
TAP	14	240	2
TAP	14	288	4
TAP	14	312	4
BRK	14	336	4
HLD	15	0	6	288
TAP	15	0	7
TAP	15	48	0
TAP	15	96	1
TAP	15	144	2
STR	15	192	2
SCR	15	192	2	96	48	5
TAP	15	240	2
HLD	16	0	2	288
TAP	16	0	3
TAP	16	48	4
TAP	16	96	5
TAP	16	144	6
STR	16	192	6
SCR	16	192	6	96	48	1
TAP	16	240	6
TAP	17	0	0
HLD	17	0	1	288
TAP	17	48	0
TAP	17	96	7
TAP	17	144	7
TAP	17	192	6
TAP	17	240	6
TAP	17	288	5
TAP	17	336	5
TAP	18	0	2
TAP	18	24	3
TAP	18	48	2
TAP	18	72	4
TAP	18	96	2
TAP	18	120	5
TAP	18	144	2
TAP	18	168	6
TAP	18	192	2
TAP	18	216	7
TAP	18	240	2
TAP	18	264	0
TAP	18	288	2
TAP	18	312	1
TAP	18	336	2
TAP	18	360	0
STR	19	0	0
SCL	19	0	0	96	48	5
HLD	19	0	2	288
TAP	19	48	0
TAP	19	192	5
TAP	19	240	6
TAP	19	288	7
HLD	20	0	5	288
STR	20	0	7
SCR	20	0	7	96	48	2
TAP	20	48	7
TAP	20	192	2
TAP	20	240	1
TAP	20	288	0
TAP	21	0	4
TAP	21	48	4
TAP	21	96	5
TAP	21	144	5
TAP	21	192	6
TAP	21	240	6
TAP	21	288	7
TAP	21	336	7
TAP	22	0	0
TAP	22	24	1
TAP	22	48	2
TAP	22	72	3
TAP	22	96	7
TAP	22	120	6
TAP	22	144	5
TAP	22	168	4
BRK	22	192	0
BRK	22	216	1
BRK	22	240	2
BRK	22	264	3
BRK	22	288	4
BRK	22	312	5
BRK	22	336	6
BRK	22	360	7
HLD	23	0	1	192
TAP	23	96	2
TAP	23	192	6
HLD	23	288	6	192
TAP	24	0	5
TAP	24	96	1
STR	24	192	6
SI_	24	192	6	96	48	1
STR	24	240	1
SI_	24	240	1	96	48	4
TAP	25	0	0
TAP	25	48	7
TAP	25	96	0
TAP	25	144	0
TAP	25	144	7
TAP	25	192	3
TAP	25	240	4
TAP	25	288	3
TAP	25	336	3
TAP	25	336	4
TAP	26	0	0
TAP	26	48	7
TAP	26	96	3
TAP	26	144	4
TAP	26	192	0
TAP	26	240	4
TAP	26	288	3
TAP	26	336	7
HLD	27	0	1	192
TAP	27	96	2
TAP	27	192	6
HLD	27	288	6	192
TAP	28	0	5
TAP	28	96	1
STR	28	192	7
SI_	28	192	7	96	48	3
STR	28	240	3
SI_	28	240	3	96	48	6
HLD	29	0	1	336
TAP	29	48	0
TAP	29	96	7
TAP	29	144	6
TAP	29	192	5
TAP	29	240	4
TAP	29	288	3
TAP	29	336	2
TAP	30	0	1
TAP	30	0	5
TAP	30	48	3
TAP	30	48	7
BRK	30	144	0
BRK	30	144	4
TAP	30	240	2
TAP	30	240	6
BRK	30	288	0
BRK	30	288	7
STR	31	0	2
SI_	31	0	2	96	48	5
STR	31	48	5
SI_	31	48	5	96	48	1
TAP	31	192	0
TAP	31	216	7
TAP	31	240	6
TAP	31	264	5
TAP	31	288	4
TAP	31	312	3
TAP	31	336	2
BRK	31	360	1
STR	32	0	7
SI_	32	0	7	96	48	3
STR	32	48	3
SI_	32	48	3	96	48	6
TAP	32	192	3
TAP	32	216	2
TAP	32	240	1
TAP	32	264	0
TAP	32	288	7
TAP	32	312	6
TAP	32	336	5
BRK	32	360	4
STR	33	0	0
SI_	33	0	0	96	48	3
STR	33	48	3
SI_	33	48	3	96	48	6
TAP	33	192	0
TAP	33	216	1
TAP	33	240	2
TAP	33	264	3
TAP	33	288	7
TAP	33	312	6
TAP	33	336	5
HLD	33	360	4	312
TAP	34	48	3
TAP	34	144	2
TAP	34	240	1
TAP	34	336	0
STR	35	0	2
SCL	35	0	2	96	48	7
STR	35	48	7
SCL	35	48	7	96	48	4
TAP	35	192	2
TAP	35	216	1
TAP	35	240	0
TAP	35	264	7
TAP	35	288	6
TAP	35	312	5
TAP	35	336	4
BRK	35	360	3
STR	36	0	5
SCR	36	0	5	96	48	0
STR	36	48	0
SCR	36	48	0	96	48	3
TAP	36	192	5
TAP	36	216	6
TAP	36	240	7
TAP	36	264	0
TAP	36	288	1
TAP	36	312	2
TAP	36	336	3
BRK	36	360	4
STR	37	0	0
SCR	37	0	0	96	48	3
STR	37	0	7
SCL	37	0	7	96	48	4
TAP	37	192	0
TAP	37	216	4
TAP	37	240	1
TAP	37	264	5
TAP	37	288	2
TAP	37	288	6
TAP	37	312	3
TAP	37	312	7
TAP	37	336	0
TAP	37	336	4
BRK	37	360	1
BRK	37	360	5
TAP	38	48	3
TAP	38	48	4
TAP	38	96	2
TAP	38	96	3
TAP	38	144	4
TAP	38	144	5
TAP	38	240	1
TAP	38	240	6
TAP	39	0	2
TAP	39	24	3
TAP	39	48	2
TAP	39	96	4
TAP	39	120	3
TAP	39	144	4
TAP	39	192	3
TAP	39	216	4
TAP	39	240	3
TAP	39	288	5
TAP	39	312	4
TAP	39	336	5
TAP	40	0	1
TAP	40	24	0
TAP	40	48	1
TAP	40	96	6
TAP	40	120	7
TAP	40	144	6
STR	40	192	6
SCR	40	192	6	96	24	1
STR	40	240	1
SCR	40	240	1	96	24	4
TAP	41	0	7
TAP	41	24	6
TAP	41	48	5
TAP	41	96	0
TAP	41	120	7
TAP	41	144	0
TAP	41	192	0
TAP	41	216	1
TAP	41	240	2
TAP	41	288	1
TAP	41	312	2
TAP	41	336	3
TAP	42	0	4
TAP	42	24	3
TAP	42	48	4
TAP	42	96	6
TAP	42	120	5
TAP	42	144	4
STR	42	192	1
SCL	42	192	1	96	24	6
STR	42	240	6
SCL	42	240	6	96	24	3
TAP	43	0	2
TAP	43	24	2
TAP	43	48	3
TAP	43	96	3
TAP	43	120	3
TAP	43	144	4
TAP	43	192	4
TAP	43	216	4
TAP	43	240	5
TAP	43	288	5
TAP	43	312	5
TAP	43	336	6
TAP	44	0	0
TAP	44	24	0
TAP	44	48	7
TAP	44	96	7
TAP	44	120	7
TAP	44	144	6
STR	44	192	1
SCR	44	192	1	96	24	4
STR	44	240	1
SCL	44	240	1	96	24	6
STR	45	0	5
SI_	45	0	5	96	24	2
STR	45	48	1
SI_	45	48	1	96	24	6
TAP	45	192	1
TAP	45	192	5
TAP	45	240	0
TAP	45	240	4
TAP	45	288	3
TAP	45	288	7
HLD	45	336	2	240
HLD	45	336	6	240
BRK	46	288	0
BRK	46	288	7
HLD	47	0	6	288
TAP	47	0	7
TAP	47	48	0
TAP	47	96	1
TAP	47	144	2
STR	47	192	2
SCR	47	192	2	96	48	5
TAP	47	240	2
HLD	48	0	2	288
TAP	48	0	3
TAP	48	48	4
TAP	48	96	5
TAP	48	144	6
STR	48	192	6
SCR	48	192	6	96	48	1
TAP	48	240	6
TAP	49	0	0
HLD	49	0	1	288
TAP	49	48	0
TAP	49	96	7
TAP	49	144	7
TAP	49	192	6
TAP	49	240	6
TAP	49	288	5
TAP	49	336	5
TAP	50	0	2
TAP	50	24	3
TAP	50	48	2
TAP	50	72	4
TAP	50	96	2
TAP	50	120	5
TAP	50	144	2
TAP	50	168	6
TAP	50	192	2
TAP	50	216	7
TAP	50	240	2
TAP	50	264	0
TAP	50	288	2
TAP	50	312	1
TAP	50	336	2
TAP	50	360	0
STR	51	0	0
SCL	51	0	0	96	48	5
HLD	51	0	2	288
TAP	51	48	0
TAP	51	192	5
TAP	51	240	6
TAP	51	288	7
HLD	52	0	5	288
STR	52	0	7
SCR	52	0	7	96	48	2
TAP	52	48	7
TAP	52	192	2
TAP	52	240	1
TAP	52	288	0
TAP	53	0	4
TAP	53	48	4
TAP	53	96	5
TAP	53	144	5
TAP	53	192	6
TAP	53	240	6
TAP	53	288	7
TAP	53	336	7
TAP	54	0	0
TAP	54	24	1
TAP	54	48	2
TAP	54	72	3
TAP	54	96	7
TAP	54	120	6
TAP	54	144	5
TAP	54	168	4
BRK	54	192	0
BRK	54	216	1
BRK	54	240	2
BRK	54	264	3
BRK	54	288	4
BRK	54	312	5
BRK	54	336	6
BRK	54	360	7
HLD	55	0	0	192

T_REC_TAP	339
T_REC_BRK	29
T_REC_XTP	0
T_REC_HLD	29
T_REC_XHO	0
T_REC_STR	36
T_REC_BST	0
T_REC_XST	0
T_REC_TTP	0
T_REC_THO	0
T_REC_SLD	36
T_REC_ALL	469
T_NUM_TAP	375
T_NUM_BRK	29
T_NUM_HLD	29
T_NUM_SLD	36
T_NUM_ALL	469
T_JUDGE_TAP	404
T_JUDGE_HLD	148
T_JUDGE_SLD	36
T_JUDGE_ALL	588
TTM_EACHPAIRS	42
TTM_SCR_TAP	187500
TTM_SCR_BRK	75400
TTM_SCR_HLD	29000
TTM_SCR_SLD	54000
TTM_SCR_ALL	345900
TTM_SCR_S	332750
TTM_SCR_SS	343000
TTM_RAT_ACV	10084

