VERSION	0.00.00	1.03.00
FES_MODE	0
BPM_DEF	162.000	162.000	162.000	162.000
MET_DEF	4	4
RESOLUTION	384
CLK_DEF	384
COMPATIBLE_CODE	MA2

BPM	0	0	162.000
MET	0	0	4	4

TAP	5	0	3
TAP	5	96	3
TAP	5	192	3
TAP	5	288	3
TAP	5	336	3
TAP	6	0	4
TAP	6	96	4
TAP	6	192	4
TAP	6	288	4
TAP	6	336	4
TAP	7	0	3
TAP	7	96	3
TAP	7	192	3
TAP	7	288	3
TAP	7	336	3
STR	8	0	4
SI_	8	0	4	96	48	1
STR	8	192	2
SI_	8	192	2	96	48	7
TAP	9	0	6
TAP	9	48	5
TAP	9	96	6
TAP	9	144	5
TAP	9	192	7
TAP	9	240	5
TAP	9	288	6
TAP	10	0	2
TAP	10	48	3
TAP	10	96	2
TAP	10	144	3
TAP	10	192	1
TAP	10	240	3
TAP	10	288	2
TAP	11	0	0
TAP	11	48	7
TAP	11	96	6
TAP	11	144	5
TAP	11	192	4
TAP	11	240	3
TAP	11	288	2
TAP	12	0	3
TAP	12	48	4
TAP	12	96	5
TAP	12	144	6
TAP	12	192	7
TAP	12	240	0
TAP	12	288	1
TAP	13	0	0
TAP	13	0	7
TAP	13	72	0
TAP	13	72	6
TAP	13	144	5
TAP	13	144	7
TAP	13	240	6
TAP	13	240	7
TAP	13	288	0
TAP	13	288	7
TAP	13	336	0
TAP	13	336	1
HLD	14	0	2	288
STR	14	192	3
SI_	14	192	3	96	48	7
TAP	15	0	6
TAP	15	0	7
TAP	15	48	5
TAP	15	72	4
TAP	15	120	5
TAP	15	144	6
TAP	15	192	7
TAP	15	240	0
TAP	15	288	1
TAP	15	336	2
TAP	16	0	3
TAP	16	0	4
TAP	16	48	5
TAP	16	72	6
TAP	16	120	5
TAP	16	144	4
TAP	16	192	3
TAP	16	240	2
TAP	16	288	1
TAP	16	312	0
TAP	16	336	1
TAP	17	0	2
TAP	17	48	3
TAP	17	96	4
TAP	17	192	2
TAP	17	240	1
TAP	17	288	0
TAP	18	0	0
TAP	18	48	1
TAP	18	96	2
TAP	18	144	3
TAP	18	192	4
TAP	18	240	5
TAP	18	288	6
TAP	18	336	7
TAP	19	0	0
TAP	19	0	1
TAP	19	48	2
TAP	19	72	3
TAP	19	120	2
TAP	19	144	1
TAP	19	192	0
TAP	19	240	7
TAP	19	288	6
TAP	19	336	5
TAP	20	0	3
TAP	20	0	4
TAP	20	48	2
TAP	20	72	1
TAP	20	120	2
TAP	20	144	3
TAP	20	192	4
TAP	20	240	5
TAP	20	288	6
TAP	20	312	7
TAP	20	336	6
TAP	21	0	5
TAP	21	48	4
TAP	21	97	3
TAP	21	192	5
TAP	21	240	6
TAP	21	288	7
TAP	22	0	7
TAP	22	48	6
TAP	22	96	5
TAP	22	144	4
TAP	22	192	3
TAP	22	240	2
TAP	22	288	1
TAP	22	336	0
HLD	23	0	7	192
TAP	23	96	6
TAP	23	192	0
TAP	23	240	1
TAP	23	288	2
STR	23	336	3
SI_	23	336	3	96	48	7
HLD	24	288	7	96
TAP	25	0	6
TAP	25	48	5
HLD	25	144	7	96
HLD	25	240	0	96
HLD	25	336	1	96
TAP	26	48	2
TAP	26	96	3
TAP	26	144	4
HLD	26	192	3	96
HLD	26	288	1	96
HLD	27	0	0	192
TAP	27	96	7
TAP	27	192	1
TAP	27	240	2
TAP	27	288	3
STR	27	336	4
SI_	27	336	4	96	48	0
HLD	28	288	0	96
TAP	29	0	1
TAP	29	48	2
HLD	29	144	0	96
HLD	29	240	7	96
STR	29	336	6
SI_	29	336	6	96	48	3
STR	30	48	1
SI_	30	48	1	96	48	4
STR	30	144	7
SI_	30	144	7	96	48	3
BRK	30	288	0
TAP	31	0	0
TAP	31	48	2
TAP	31	96	1
TAP	31	144	7
TAP	31	192	0
TAP	31	240	1
TAP	31	288	2
HLD	31	336	1	96
HLD	32	48	0	96
HLD	32	144	7	96
HLD	32	240	6	144
TAP	33	0	7
TAP	33	48	0
TAP	33	96	1
TAP	33	144	2
TAP	33	192	3
TAP	33	240	4
TAP	33	288	5
HLD	33	336	6	144
HLD	34	144	6	144
HLD	34	144	7	144
TAP	35	0	0
TAP	35	48	2
TAP	35	96	0
TAP	35	144	6
TAP	35	192	5
TAP	35	240	3
TAP	35	288	1
HLD	35	336	0	96
HLD	36	48	7	96
HLD	36	144	6	96
HLD	36	240	5	288
HLD	36	336	4	96
TAP	37	144	6
TAP	37	192	7
TAP	37	240	0
TAP	37	336	1
TAP	38	48	2
TAP	38	96	3
BRK	38	144	1
BRK	38	144	2
BRK	38	240	0
BRK	38	240	1
TAP	39	0	0
TAP	39	0	7
TAP	39	96	6
TAP	39	144	6
TAP	39	192	2
TAP	39	240	2
TAP	39	288	4
HLD	39	336	4	96
HLD	40	48	2	96
HLD	40	144	6	144
TAP	40	240	7
TAP	40	288	7
TAP	41	0	1
TAP	41	48	2
TAP	41	96	1
TAP	41	144	0
TAP	41	192	7
TAP	41	240	6
TAP	41	288	7
STR	41	336	0
SCR	41	336	0	96	48	3
STR	42	144	0
SCL	42	144	0	96	48	5
BRK	42	288	0
TAP	43	0	0
TAP	43	0	7
TAP	43	96	1
TAP	43	144	1
TAP	43	192	5
TAP	43	240	5
TAP	43	288	3
HLD	43	336	3	96
HLD	44	48	5	96
HLD	44	144	1	144
TAP	44	240	0
TAP	44	288	0
TAP	45	0	0
TAP	45	48	1
TAP	45	96	2
TAP	45	144	3
TAP	45	192	4
TAP	45	240	2
TAP	45	288	0
HLD	45	336	7	240
STR	46	192	5
SI_	46	192	5	96	48	0
TAP	47	0	6
TAP	47	0	7
TAP	47	48	5
TAP	47	72	4
TAP	47	120	5
TAP	47	144	6
TAP	47	192	7
TAP	47	240	0
TAP	47	288	1
TAP	47	336	2
TAP	48	0	3
TAP	48	0	4
TAP	48	48	5
TAP	48	72	6
TAP	48	120	5
TAP	48	144	4
TAP	48	192	3
TAP	48	240	2
TAP	48	288	1
TAP	48	312	0
TAP	48	336	1
TAP	49	0	2
TAP	49	48	3
TAP	49	96	4
TAP	49	192	2
TAP	49	240	1
TAP	49	288	0
TAP	50	0	0
TAP	50	48	1
TAP	50	96	2
TAP	50	144	3
TAP	50	192	4
TAP	50	240	5
TAP	50	288	6
BRK	50	336	7
TAP	51	0	0
TAP	51	0	1
TAP	51	48	2
TAP	51	72	3
TAP	51	120	2
TAP	51	144	1
TAP	51	192	0
TAP	51	240	7
TAP	51	288	6
TAP	51	336	5
TAP	52	0	3
TAP	52	0	4
TAP	52	48	2
TAP	52	72	1
TAP	52	120	2
TAP	52	144	3
TAP	52	192	4
TAP	52	240	5
TAP	52	288	6
TAP	52	312	7
TAP	52	336	6
TAP	53	0	5
TAP	53	48	4
TAP	53	96	3
TAP	53	192	5
TAP	53	240	6
TAP	53	288	7
TAP	54	0	7
TAP	54	48	6
TAP	54	96	5
TAP	54	144	4
TAP	54	192	3
TAP	54	240	2
TAP	54	288	1
BRK	54	336	0
STR	55	0	7
SI_	55	0	7	96	48	4

T_REC_TAP	267
T_REC_BRK	8
T_REC_XTP	0
T_REC_HLD	31
T_REC_XHO	0
T_REC_STR	12
T_REC_BST	0
T_REC_XST	0
T_REC_TTP	0
T_REC_THO	0
T_REC_SLD	12
T_REC_ALL	330
T_NUM_TAP	279
T_NUM_BRK	8
T_NUM_HLD	31
T_NUM_SLD	12
T_NUM_ALL	330
T_JUDGE_TAP	287
T_JUDGE_HLD	83
T_JUDGE_SLD	12
T_JUDGE_ALL	382
TTM_EACHPAIRS	19
TTM_SCR_TAP	139500
TTM_SCR_BRK	20800
TTM_SCR_HLD	31000
TTM_SCR_SLD	18000
TTM_SCR_ALL	209300
TTM_SCR_S	202250
TTM_SCR_SS	208500
TTM_RAT_ACV	10038

