VERSION	0.00.00	1.03.00
FES_MODE	0
BPM_DEF	162.000	162.000	162.000	162.000
MET_DEF	4	4
RESOLUTION	384
CLK_DEF	384
COMPATIBLE_CODE	MA2

BPM	0	0	162.000
MET	0	0	4	4

TAP	5	0	2
TAP	5	96	3
TAP	5	192	0
TAP	5	192	7
TAP	5	288	6
TAP	5	288	7
TAP	6	0	5
TAP	6	96	4
TAP	6	192	0
TAP	6	192	7
TAP	6	288	0
TAP	6	288	1
TAP	7	0	1
TAP	7	96	2
TAP	7	192	0
TAP	7	192	7
TAP	7	288	6
TAP	7	288	7
TAP	8	0	0
TAP	8	0	7
TAP	8	96	0
TAP	8	96	7
TAP	8	192	0
TAP	8	192	1
TAP	8	288	0
TAP	8	288	1
TAP	9	0	0
TAP	9	48	0
TAP	9	96	0
TAP	9	192	1
TAP	9	240	1
TAP	9	288	2
TAP	10	0	0
TAP	10	48	0
TAP	10	96	0
TAP	10	192	7
TAP	10	240	7
TAP	10	288	6
TAP	11	0	1
TAP	11	48	1
TAP	11	96	1
TAP	11	192	2
TAP	11	240	2
TAP	11	288	3
TAP	12	0	7
TAP	12	48	7
TAP	12	96	7
TAP	12	192	6
TAP	12	240	6
TAP	12	288	5
TAP	13	0	6
TAP	13	0	7
TAP	13	72	0
TAP	13	72	7
TAP	13	144	0
TAP	13	144	7
HLD	14	0	1	192
STR	14	192	2
SI_	14	192	2	96	48	7
TAP	15	0	6
TAP	15	96	5
TAP	15	192	6
TAP	15	288	0
TAP	15	288	7
TAP	16	0	1
TAP	16	96	2
TAP	16	192	1
TAP	16	288	0
TAP	16	288	7
STR	17	0	6
SI_	17	0	6	96	96	2
STR	18	0	0
SI_	18	0	0	96	96	4
BRK	18	288	0
TAP	19	0	7
TAP	19	96	6
TAP	19	192	5
TAP	19	288	6
TAP	19	288	7
TAP	20	0	0
TAP	20	96	1
TAP	20	192	2
TAP	20	288	0
TAP	20	288	1
TAP	21	0	7
TAP	21	96	7
TAP	21	192	0
TAP	21	288	0
TAP	22	0	6
TAP	22	96	4
TAP	22	192	2
BRK	22	288	0
HLD	23	0	7	192
TAP	23	192	0
TAP	23	288	1
STR	23	336	1
SI_	23	336	1	96	144	6
TAP	25	0	6
TAP	25	96	6
TAP	25	192	7
TAP	25	288	7
TAP	26	0	0
TAP	26	96	0
TAP	26	192	1
TAP	26	288	1
HLD	27	0	2	192
TAP	27	192	3
TAP	27	288	4
STR	27	336	4
SI_	27	336	4	96	144	7
TAP	29	0	6
TAP	29	96	6
TAP	29	192	5
TAP	29	288	5
TAP	30	0	7
TAP	30	96	7
TAP	30	192	0
BRK	30	288	0
TAP	31	0	4
HLD	31	0	5	96
TAP	31	96	1
HLD	31	192	2	96
TAP	31	192	3
TAP	31	288	6
TAP	32	0	4
HLD	32	0	5	96
TAP	32	96	1
HLD	32	192	2	192
TAP	32	192	3
TAP	32	288	6
HLD	33	0	1	96
TAP	33	96	2
TAP	33	192	3
TAP	33	192	4
TAP	33	288	2
TAP	33	288	3
HLD	34	0	6	96
TAP	34	96	5
TAP	34	192	3
TAP	34	192	4
TAP	34	288	4
TAP	34	288	5
TAP	35	0	4
HLD	35	0	5	96
TAP	35	96	1
HLD	35	192	2	96
TAP	35	192	3
TAP	35	288	6
TAP	36	0	4
HLD	36	0	5	96
TAP	36	96	1
HLD	36	192	2	192
TAP	36	192	3
TAP	36	288	6
TAP	37	0	1
TAP	37	96	2
TAP	37	192	1
TAP	37	288	7
TAP	37	336	7
TAP	38	48	6
TAP	38	96	5
TAP	38	144	6
TAP	38	144	7
BRK	38	240	0
BRK	38	240	7
TAP	39	0	1
TAP	39	96	2
TAP	39	144	2
TAP	39	192	2
TAP	39	288	1
HLD	39	336	1	96
HLD	40	48	0	96
HLD	40	144	7	96
TAP	40	240	6
BRK	40	288	6
TAP	41	0	0
TAP	41	48	0
TAP	41	96	0
TAP	41	192	1
TAP	41	240	1
TAP	41	288	1
TAP	42	0	2
TAP	42	48	2
TAP	42	96	2
TAP	42	192	3
TAP	42	240	3
TAP	42	288	3
TAP	43	0	5
TAP	43	96	6
TAP	43	144	6
TAP	43	192	6
TAP	43	288	5
HLD	43	336	5	96
HLD	44	48	4	96
HLD	44	144	3	96
TAP	44	240	2
BRK	44	288	2
TAP	45	0	3
TAP	45	48	3
TAP	45	96	5
TAP	45	144	5
TAP	45	192	1
TAP	45	240	1
TAP	45	288	7
HLD	45	336	7	336
TAP	47	0	1
TAP	47	96	1
TAP	47	96	2
TAP	47	192	7
TAP	47	288	6
TAP	47	288	7
TAP	48	0	0
TAP	48	96	0
TAP	48	96	1
TAP	48	192	6
TAP	48	288	5
TAP	48	288	6
STR	49	0	7
SCR	49	0	7	96	96	2
STR	50	0	6
SCL	50	0	6	96	96	3
BRK	50	288	0
TAP	51	0	1
TAP	51	96	2
TAP	51	96	3
TAP	51	192	0
TAP	51	288	6
TAP	51	288	7
TAP	52	0	0
TAP	52	96	1
TAP	52	96	2
TAP	52	192	7
TAP	52	288	5
TAP	52	288	6
TAP	53	0	2
TAP	53	0	3
TAP	53	96	2
TAP	53	96	3
TAP	53	192	3
TAP	53	192	4
TAP	53	288	3
TAP	53	288	4
TAP	54	0	2
TAP	54	96	0
TAP	54	192	6
STR	54	288	4
SI_	54	288	4	96	48	0

T_REC_TAP	203
T_REC_BRK	8
T_REC_XTP	0
T_REC_HLD	20
T_REC_XHO	0
T_REC_STR	8
T_REC_BST	0
T_REC_XST	0
T_REC_TTP	0
T_REC_THO	0
T_REC_SLD	8
T_REC_ALL	247
T_NUM_TAP	211
T_NUM_BRK	8
T_NUM_HLD	20
T_NUM_SLD	8
T_NUM_ALL	247
T_JUDGE_TAP	219
T_JUDGE_HLD	55
T_JUDGE_SLD	8
T_JUDGE_ALL	282
TTM_EACHPAIRS	43
TTM_SCR_TAP	105500
TTM_SCR_BRK	20800
TTM_SCR_HLD	20000
TTM_SCR_SLD	12000
TTM_SCR_ALL	158300
TTM_SCR_S	152800
TTM_SCR_SS	157500
TTM_RAT_ACV	10050

