VERSION	0.00.00	1.03.00
FES_MODE	0
BPM_DEF	162.000	162.000	162.000	162.000
MET_DEF	4	4
RESOLUTION	384
CLK_DEF	384
COMPATIBLE_CODE	MA2

BPM	0	0	162.000
MET	0	0	4	4

TAP	5	0	7
TAP	5	192	7
TAP	6	0	0
TAP	6	192	0
TAP	7	0	7
TAP	7	192	7
TAP	8	0	0
TAP	8	192	0
BRK	8	288	0
TAP	9	96	7
TAP	9	288	6
TAP	9	288	7
TAP	10	96	7
TAP	10	288	0
TAP	10	288	7
TAP	11	96	1
TAP	11	288	1
TAP	11	288	2
TAP	12	96	1
TAP	12	288	0
TAP	12	288	1
HLD	13	0	7	288
BRK	14	0	7
STR	14	192	6
SI_	14	192	6	96	96	2
TAP	15	96	1
TAP	15	288	1
TAP	16	96	2
TAP	16	288	2
TAP	17	96	0
TAP	17	96	1
TAP	17	288	0
TAP	17	288	1
TAP	18	96	6
TAP	18	96	7
BRK	18	288	6
BRK	18	288	7
TAP	19	96	0
TAP	19	288	1
TAP	20	96	0
TAP	20	288	7
TAP	21	96	6
TAP	21	288	7
BRK	22	0	7
HLD	23	0	1	288
TAP	24	96	1
STR	24	288	2
SI_	24	288	2	96	96	5
STR	25	288	6
SI_	25	288	6	96	96	1
HLD	27	0	1	288
TAP	28	96	1
STR	28	288	2
SI_	28	288	2	96	96	7
STR	29	288	6
SI_	29	288	6	96	96	3
BRK	30	288	0
TAP	31	96	1
TAP	31	192	1
TAP	31	288	1
TAP	32	96	2
TAP	32	192	2
TAP	32	288	2
TAP	33	96	0
TAP	33	192	0
TAP	33	288	0
TAP	34	96	7
TAP	34	192	7
TAP	34	288	7
TAP	35	96	0
TAP	35	192	0
TAP	35	288	0
TAP	36	96	1
TAP	36	192	1
TAP	36	288	1
TAP	37	96	7
TAP	37	288	5
TAP	38	96	6
TAP	38	192	7
BRK	38	288	0
TAP	39	0	1
TAP	39	96	1
TAP	39	192	2
TAP	39	288	2
TAP	40	0	1
TAP	40	96	1
TAP	40	192	0
TAP	40	288	0
TAP	41	0	7
TAP	41	96	7
TAP	41	192	6
TAP	41	288	6
TAP	42	0	7
TAP	42	96	7
TAP	42	192	0
TAP	42	288	0
TAP	43	0	1
TAP	43	96	1
TAP	43	192	2
TAP	43	288	2
TAP	44	0	3
TAP	44	96	3
TAP	44	192	4
TAP	44	288	4
TAP	45	0	3
TAP	45	96	3
TAP	45	192	2
TAP	45	288	2
TAP	46	0	3
TAP	46	96	5
TAP	46	192	7
BRK	46	288	7
STR	47	0	0
SI_	47	0	0	96	96	4
STR	48	0	5
SI_	48	0	5	96	96	1
HLD	49	0	2	288
HLD	50	0	3	288
STR	51	0	2
SI_	51	0	2	96	96	5
STR	52	0	6
SI_	52	0	6	96	96	1
TAP	53	0	2
TAP	53	192	3
TAP	54	0	2
TAP	54	96	2
TAP	54	192	1
TAP	54	288	1
BRK	55	0	0

T_REC_TAP	97
T_REC_BRK	9
T_REC_XTP	0
T_REC_HLD	5
T_REC_XHO	0
T_REC_STR	9
T_REC_BST	0
T_REC_XST	0
T_REC_TTP	0
T_REC_THO	0
T_REC_SLD	9
T_REC_ALL	129
T_NUM_TAP	106
T_NUM_BRK	9
T_NUM_HLD	5
T_NUM_SLD	9
T_NUM_ALL	129
T_JUDGE_TAP	115
T_JUDGE_HLD	30
T_JUDGE_SLD	9
T_JUDGE_ALL	154
TTM_EACHPAIRS	8
TTM_SCR_TAP	53000
TTM_SCR_BRK	23400
TTM_SCR_HLD	5000
TTM_SCR_SLD	13500
TTM_SCR_ALL	94900
TTM_SCR_S	91200
TTM_SCR_SS	94000
TTM_RAT_ACV	10095

