VERSION	0.00.00	1.03.00
FES_MODE	0
BPM_DEF	147.000	147.000	147.000	147.000
MET_DEF	4	4
RESOLUTION	384
CLK_DEF	384
COMPATIBLE_CODE	MA2

BPM	0	0	147.000
MET	0	0	4	4

HLD	2	0	0	72
HLD	2	72	5	72
HLD	2	144	2	48
HLD	2	192	4	72
HLD	2	264	0	312
HLD	2	336	7	240
TAP	3	288	0
TAP	3	288	7
HLD	4	0	1	72
HLD	4	72	4	72
HLD	4	144	7	144
HLD	4	288	6	72
HLD	4	360	2	72
HLD	5	48	4	144
STR	6	0	0
SI_	6	0	0	96	72	4
TAP	6	96	1
TAP	6	144	2
TAP	6	240	3
TAP	6	288	4
STR	6	288	7
SI_	6	288	7	96	72	3
TAP	7	0	6
TAP	7	48	5
TAP	7	144	4
STR	7	192	0
SI_	7	192	0	96	48	5
TAP	7	192	3
STR	7	240	6
SI_	7	240	6	96	48	3
STR	8	0	1
SI_	8	0	1	96	48	4
TAP	8	96	2
TAP	8	144	3
TAP	8	240	6
STR	8	288	6
SI_	8	288	6	96	48	3
TAP	8	288	7
TAP	9	0	5
TAP	9	48	4
TAP	9	144	3
TAP	9	192	1
TAP	9	192	3
TAP	9	288	5
TAP	9	288	7
STR	10	0	1
SI_	10	0	1	96	48	6
TAP	10	72	6
TAP	10	144	5
STR	10	288	5
SI_	10	288	5	96	48	2
TAP	10	360	2
TAP	11	48	3
STR	11	192	1
SCL	11	192	1	96	96	6
TAP	12	0	5
HLD	12	72	3	72
TAP	12	144	2
TAP	12	192	1
TAP	12	264	6
STR	12	336	1
SCR	12	336	1	96	144	4
STR	12	336	5
SCR	12	336	5	96	144	0
TAP	13	288	0
TAP	13	288	7
TAP	14	0	0
TAP	14	24	1
TAP	14	48	0
TAP	14	144	4
STR	14	192	1
SI_	14	192	1	96	48	6
TAP	14	288	3
TAP	15	0	5
TAP	15	24	4
TAP	15	48	5
TAP	15	144	3
TAP	15	168	4
TAP	15	192	3
TAP	15	216	4
TAP	15	240	3
TAP	16	0	0
TAP	16	24	1
TAP	16	48	0
TAP	16	144	3
STR	16	192	6
SI_	16	192	6	96	48	1
TAP	16	288	4
TAP	17	0	7
TAP	17	24	6
TAP	17	48	7
TAP	17	144	0
TAP	17	192	0
TAP	17	192	7
TAP	17	240	7
TAP	17	288	6
TAP	17	288	7
BRK	17	336	0
TAP	18	0	1
TAP	18	24	2
TAP	18	48	1
TAP	18	144	4
STR	18	192	1
SCL	18	192	1	96	48	6
TAP	18	288	3
TAP	19	0	5
TAP	19	24	4
TAP	19	48	5
TAP	19	144	4
TAP	19	168	3
TAP	19	192	4
TAP	19	216	3
TAP	19	240	4
HLD	20	0	0	96
TAP	20	96	3
TAP	20	144	4
TAP	20	192	5
TAP	20	264	6
TAP	20	336	7
HLD	21	0	2	192
TAP	21	288	0
HLD	22	0	6	192
TAP	22	96	5
HLD	22	192	7	96
HLD	22	288	0	96
HLD	23	0	1	384
TAP	23	96	2
TAP	23	192	0
TAP	23	288	7
HLD	24	0	6	384
TAP	24	96	7
TAP	24	192	5
TAP	24	288	4
HLD	25	0	3	192
TAP	25	96	4
HLD	25	192	2	96
HLD	25	288	1	96
HLD	26	0	0	144
TAP	26	144	1
TAP	26	192	2
TAP	26	240	3
TAP	26	288	4
HLD	26	336	5	96
TAP	27	48	6
HLD	27	96	7	96
HLD	28	0	0	72
HLD	28	72	1	72
TAP	28	144	2
HLD	28	192	1	72
HLD	28	264	0	72
HLD	28	336	7	48
TAP	29	0	6
TAP	29	72	7
TAP	29	96	0
TAP	29	192	2
TAP	29	192	3
TAP	29	264	3
TAP	29	264	4
TAP	29	336	4
TAP	29	336	5
HLD	30	0	6	192
TAP	30	96	7
HLD	30	192	0	192
TAP	30	288	1
TAP	31	0	2
TAP	31	48	3
TAP	31	96	4
TAP	31	144	5
TAP	31	192	6
TAP	31	216	7
TAP	31	240	0
TAP	31	264	1
TAP	31	288	2
TAP	31	312	3
TAP	31	336	4
BRK	31	360	5
HLD	32	0	1	96
TAP	32	144	2
STR	32	192	0
SI_	32	192	0	96	48	4
STR	32	264	6
SI_	32	264	6	96	48	2
TAP	32	336	6
TAP	33	0	3
STR	33	96	0
SI_	33	96	0	96	48	3
TAP	33	168	0
STR	33	288	7
SI_	33	288	7	96	48	4
TAP	33	360	7
HLD	34	0	0	144
TAP	34	144	1
HLD	34	192	1	71
HLD	34	264	5	72
HLD	34	336	4	48
HLD	35	0	3	96
TAP	35	96	2
TAP	35	144	3
TAP	35	168	4
TAP	35	192	3
TAP	35	240	5
HLD	35	288	6	96
TAP	35	336	5
HLD	36	0	1	192
HLD	36	192	3	96
HLD	36	288	4	96
HLD	37	0	7	192
TAP	37	144	0
HLD	37	192	0	96
TAP	37	288	1
HLD	38	0	0	96
HLD	38	96	3	96
HLD	38	192	4	96
HLD	38	288	7	96
STR	39	0	0
SI_	39	0	0	96	48	5
STR	39	48	7
SI_	39	48	7	96	48	2
STR	39	192	1
SCL	39	192	1	96	48	6
STR	39	240	5
SCL	39	240	5	96	48	2
HLD	40	0	7	96
TAP	40	144	0
STR	40	192	0
SI_	40	192	0	96	48	4
STR	40	264	6
SI_	40	264	6	96	48	1
TAP	40	336	6
TAP	41	0	2
STR	41	96	2
SI_	41	96	2	96	48	5
TAP	41	168	2
STR	41	288	7
SI_	41	288	7	96	48	3
TAP	41	360	7
HLD	42	0	1	144
TAP	42	144	2
HLD	42	192	3	72
HLD	42	264	4	72
HLD	42	336	5	48
HLD	43	0	6	96
TAP	43	144	7
TAP	43	168	6
TAP	43	192	7
TAP	43	240	0
TAP	43	288	1
TAP	43	336	0
HLD	44	0	0	144
TAP	44	144	4
TAP	44	192	3
TAP	44	288	3
TAP	44	288	4
HLD	45	0	2	96
HLD	45	96	1	96
HLD	45	192	0	96
TAP	45	288	1
TAP	45	360	0
TAP	46	0	7
STR	46	96	6
SI_	46	96	6	96	96	2
TAP	46	192	3
TAP	46	264	4
TAP	46	336	6
TAP	47	0	1
HLD	47	0	3	384
TAP	47	72	1
TAP	47	144	0
TAP	47	192	7
TAP	47	264	6
TAP	47	336	6
TAP	48	0	4
BRK	48	72	3
HLD	48	96	2	96
HLD	48	192	3	96
HLD	48	288	4	96
HLD	49	0	6	168
TAP	49	168	7
TAP	49	216	0
TAP	49	312	1
HLD	50	24	1	97
HLD	50	120	2	96
HLD	50	216	1	96
TAP	50	312	2
TAP	51	0	3
HLD	51	24	3	288
STR	51	312	0
SI_	51	312	0	96	48	4
STR	52	24	7
SI_	52	24	7	96	48	3
STR	52	168	0
SI_	52	168	0	96	48	3
HLD	53	0	1	480
TAP	53	96	2
TAP	53	192	4
TAP	53	288	6
TAP	54	0	0
TAP	54	72	7
TAP	54	96	0
TAP	54	288	7
TAP	54	336	0
STR	55	0	0
SI_	55	0	0	96	48	3
TAP	55	72	0
HLD	55	96	1	192
TAP	55	288	2
TAP	55	336	3
STR	56	0	7
SI_	56	0	7	96	48	4
TAP	56	72	7
HLD	56	96	6	192
TAP	56	288	5
HLD	57	0	2	312
TAP	57	168	7
TAP	57	192	7
TAP	57	216	7
HLD	57	312	5	96
HLD	58	24	4	288
TAP	58	168	0
TAP	58	192	0
TAP	58	216	0
HLD	58	312	6	96
HLD	59	24	1	288
TAP	59	168	4
TAP	59	192	4
TAP	59	216	4
HLD	59	312	2	96
HLD	60	24	0	288
TAP	60	168	6
TAP	60	192	6
TAP	60	216	6
TAP	60	312	3
TAP	61	15	0
TAP	61	39	1
TAP	61	63	0
TAP	61	165	3
TAP	61	189	4
TAP	61	213	3
TAP	61	237	4
TAP	61	261	3
HLD	62	27	0	189
HLD	62	27	7	189
TAP	62	306	1
TAP	62	306	6
BRK	62	354	0
BRK	62	354	7

T_REC_TAP	197
T_REC_BRK	5
T_REC_XTP	0
T_REC_HLD	80
T_REC_XHO	0
T_REC_STR	32
T_REC_BST	0
T_REC_XST	0
T_REC_TTP	0
T_REC_THO	0
T_REC_SLD	32
T_REC_ALL	346
T_NUM_TAP	229
T_NUM_BRK	5
T_NUM_HLD	80
T_NUM_SLD	32
T_NUM_ALL	346
T_JUDGE_TAP	234
T_JUDGE_HLD	242
T_JUDGE_SLD	32
T_JUDGE_ALL	508
TTM_EACHPAIRS	18
TTM_SCR_TAP	114500
TTM_SCR_BRK	13000
TTM_SCR_HLD	80000
TTM_SCR_SLD	48000
TTM_SCR_ALL	255500
TTM_SCR_S	247350
TTM_SCR_SS	255000
TTM_RAT_ACV	10019

