VERSION	0.00.00	1.03.00
FES_MODE	0
BPM_DEF	147.000	147.000	147.000	147.000
MET_DEF	4	4
RESOLUTION	384
CLK_DEF	384
COMPATIBLE_CODE	MA2

BPM	0	0	147.000
MET	0	0	4	4

HLD	2	0	4	69
HLD	2	69	1	62
HLD	2	131	6	62
HLD	2	194	3	64
HLD	2	258	7	73
HLD	2	330	0	341
HLD	4	0	2	72
TAP	4	72	3
HLD	4	153	6	93
HLD	4	290	0	72
TAP	4	362	1
HLD	5	56	7	136
HLD	5	192	6	96
STR	5	292	5
SI_	5	292	5	96	95	1
BRK	6	0	7
TAP	6	150	5
TAP	6	288	3
TAP	7	48	1
HLD	7	192	2	96
HLD	7	288	3	96
TAP	8	0	4
TAP	8	144	6
TAP	8	288	0
TAP	9	48	2
HLD	9	187	1	101
HLD	9	288	0	96
TAP	10	0	7
TAP	10	80	6
HLD	10	153	5	135
TAP	10	288	4
TAP	10	360	6
HLD	11	53	0	139
STR	11	192	1
SCL	11	192	1	96	48	6
HLD	12	0	4	76
HLD	12	76	3	72
TAP	12	149	2
TAP	12	197	0
TAP	12	197	1
TAP	12	266	0
TAP	12	266	7
HLD	12	339	6	336
HLD	12	339	7	336
TAP	14	0	0
TAP	14	48	1
TAP	14	96	2
TAP	14	144	3
HLD	14	192	4	96
STR	14	288	6
SI_	14	288	6	96	192	2
TAP	15	288	1
HLD	16	0	7	144
HLD	16	144	5	144
HLD	17	0	7	144
HLD	17	144	1	144
TAP	18	0	0
TAP	18	48	7
TAP	18	96	6
TAP	18	144	5
HLD	18	192	4	96
STR	18	288	3
SI_	18	288	3	96	192	7
TAP	19	288	0
TAP	19	336	1
STR	20	0	2
SI_	20	0	2	96	192	7
TAP	20	149	6
HLD	20	196	5	476
STR	21	288	7
SI_	21	288	7	96	192	3
STR	22	5	5
SI_	22	5	5	96	187	1
HLD	22	288	2	192
HLD	23	96	3	192
HLD	24	0	7	391
HLD	25	7	6	281
STR	25	288	5
SI_	25	288	5	96	192	1
STR	26	0	3
SI_	26	0	3	96	198	7
HLD	26	294	6	185
HLD	27	96	5	192
STR	28	3	7
SI_	28	3	7	96	93	2
STR	28	192	1
SI_	28	192	1	96	96	4
STR	29	0	3
SI_	29	0	3	96	96	6
TAP	29	192	5
TAP	29	259	3
TAP	29	259	4
TAP	29	325	2
TAP	29	325	3
HLD	30	0	0	96
HLD	30	0	1	96
HLD	30	194	0	190
HLD	30	194	7	190
STR	31	293	7
SCR	31	293	7	96	187	2
TAP	32	146	7
TAP	32	213	7
TAP	32	288	6
HLD	32	359	5	145
STR	33	31	3
SI_	33	31	3	96	161	7
TAP	33	288	0
TAP	33	360	1
HLD	34	0	2	144
TAP	34	144	1
HLD	34	192	7	72
TAP	34	264	6
TAP	34	336	5
HLD	35	5	4	234
HLD	35	240	0	240
STR	35	288	1
SCR	35	288	1	96	192	4
HLD	36	192	6	192
HLD	37	0	5	192
HLD	37	192	4	192
HLD	38	0	6	96
HLD	38	96	7	96
HLD	38	192	0	96
TAP	38	288	1
HLD	39	0	0	192
HLD	39	0	2	192
STR	39	288	7
SCL	39	288	7	96	198	4
TAP	40	144	7
TAP	40	198	7
TAP	40	276	0
HLD	40	345	1	159
STR	41	19	2
SI_	41	19	2	96	173	7
TAP	41	288	6
TAP	41	360	5
HLD	42	0	4	147
TAP	42	147	5
HLD	42	192	7	72
TAP	42	264	0
TAP	42	336	2
HLD	43	7	4	281
STR	43	288	3
SCL	43	288	3	96	144	0
STR	44	96	3
SCR	44	96	3	96	144	6
TAP	45	0	0
TAP	45	0	1
TAP	45	96	1
TAP	45	96	2
TAP	45	192	2
TAP	45	192	3
STR	45	288	0
SCL	45	288	0	96	192	5
STR	46	96	0
SCR	46	96	0	96	192	3
STR	46	264	7
SI_	46	264	7	96	216	4
STR	48	306	1
SCL	48	306	1	96	186	6
HLD	50	24	5	278
STR	50	303	4
SI_	50	303	4	96	189	0
STR	51	300	3
SI_	51	300	3	96	192	6
HLD	52	9	7	379
STR	53	5	5
SI_	53	5	5	96	187	0
STR	54	12	7
SI_	54	12	7	96	192	4
STR	55	6	1
SI_	55	6	1	96	186	6
STR	56	8	5
SI_	56	8	5	96	184	2
STR	57	7	4
SCL	57	7	4	96	137	1
STR	57	158	6
SCL	57	158	6	96	130	3
STR	58	8	0
SCR	58	8	0	96	136	3
STR	58	155	6
SCR	58	155	6	96	133	1
STR	59	9	2
SCL	59	9	2	96	135	7
STR	59	155	4
SCL	59	155	4	96	133	1
STR	60	8	7
SCR	60	8	7	96	136	2
STR	60	153	5
SCR	60	153	5	96	135	0
HLD	61	2	1	394
HLD	62	12	0	292
BRK	62	304	7
BRK	62	352	7

T_REC_TAP	58
T_REC_BRK	3
T_REC_XTP	0
T_REC_HLD	59
T_REC_XHO	0
T_REC_STR	37
T_REC_BST	0
T_REC_XST	0
T_REC_TTP	0
T_REC_THO	0
T_REC_SLD	37
T_REC_ALL	194
T_NUM_TAP	95
T_NUM_BRK	3
T_NUM_HLD	59
T_NUM_SLD	37
T_NUM_ALL	194
T_JUDGE_TAP	98
T_JUDGE_HLD	222
T_JUDGE_SLD	37
T_JUDGE_ALL	357
TTM_EACHPAIRS	11
TTM_SCR_TAP	47500
TTM_SCR_BRK	7800
TTM_SCR_HLD	59000
TTM_SCR_SLD	55500
TTM_SCR_ALL	169800
TTM_SCR_S	164450
TTM_SCR_SS	169500
TTM_RAT_ACV	10017

