VERSION	0.00.00	1.03.00
FES_MODE	0
BPM_DEF	147.000	147.000	147.000	147.000
MET_DEF	4	4
RESOLUTION	384
CLK_DEF	384
COMPATIBLE_CODE	MA2

BPM	0	0	147.000
MET	0	0	4	4

HLD	2	0	0	576
HLD	2	0	7	576
HLD	4	0	1	144
HLD	4	288	2	144
TAP	6	0	0
TAP	6	144	0
TAP	6	288	1
TAP	7	48	1
TAP	7	192	0
TAP	7	240	7
HLD	7	288	6	96
TAP	8	0	7
TAP	8	144	7
TAP	8	288	0
TAP	9	48	0
HLD	9	192	1	96
TAP	9	288	2
TAP	10	0	1
TAP	10	72	1
HLD	10	144	0	144
TAP	10	288	7
TAP	10	360	7
HLD	11	48	6	144
HLD	11	192	5	96
STR	12	0	4
SI_	12	0	4	96	192	1
STR	12	0	5
SI_	12	0	5	96	192	0
TAP	14	0	7
TAP	14	144	7
TAP	15	0	5
TAP	15	144	5
TAP	16	0	3
TAP	16	144	3
TAP	17	0	2
TAP	17	144	2
TAP	18	0	4
TAP	18	144	4
TAP	19	0	6
TAP	19	144	6
TAP	20	0	0
TAP	20	144	0
TAP	21	0	1
TAP	21	144	1
STR	22	0	2
SI_	22	0	2	96	192	7
STR	23	0	0
SI_	23	0	0	96	192	3
STR	24	0	1
SI_	24	0	1	96	192	6
STR	25	0	5
SI_	25	0	5	96	192	2
HLD	26	0	3	384
HLD	27	0	4	288
HLD	28	0	6	192
HLD	28	192	7	192
HLD	29	0	0	192
HLD	29	192	1	192
HLD	30	0	2	96
HLD	30	192	0	480
HLD	30	192	1	480
STR	32	0	7
SI_	32	0	7	96	192	2
HLD	33	0	0	288
STR	34	0	1
SCR	34	0	1	96	192	4
STR	34	192	0
SI_	34	192	0	96	192	3
STR	35	0	7
SCL	35	0	7	96	192	4
HLD	36	0	0	192
HLD	36	192	1	192
HLD	37	0	2	192
HLD	37	192	3	192
TAP	38	0	2
TAP	38	96	1
TAP	38	192	0
STR	38	288	6
SI_	38	288	6	96	192	2
STR	38	288	7
SI_	38	288	7	96	192	3
STR	40	0	0
SI_	40	0	0	96	192	4
HLD	41	0	7	288
STR	42	0	6
SI_	42	0	6	96	192	1
STR	43	0	2
SI_	43	0	2	96	192	5
HLD	44	0	4	192
HLD	44	192	3	192
TAP	45	0	2
TAP	45	96	1
TAP	45	192	0
TAP	45	192	7
TAP	45	288	6
HLD	46	0	4	96
HLD	46	0	5	96
HLD	46	192	3	96
HLD	46	192	4	96
HLD	47	0	2	384
HLD	47	0	3	384
STR	49	16	5
SCR	49	16	5	96	192	0
HLD	50	16	1	270
HLD	51	16	2	270
HLD	52	16	1	144
HLD	52	160	0	144
TAP	52	304	7
STR	53	16	6
SI_	53	16	6	96	192	2
STR	55	0	4
SI_	55	0	4	96	192	7
STR	57	0	7
SI_	57	0	7	96	192	2
STR	58	0	1
SI_	58	0	1	96	192	4
STR	59	0	5
SI_	59	0	5	96	192	2
STR	60	0	3
SI_	60	0	3	96	192	0
HLD	61	0	7	689
BRK	62	304	0
BRK	62	352	0

T_REC_TAP	40
T_REC_BRK	2
T_REC_XTP	0
T_REC_HLD	37
T_REC_XHO	0
T_REC_STR	22
T_REC_BST	0
T_REC_XST	0
T_REC_TTP	0
T_REC_THO	0
T_REC_SLD	22
T_REC_ALL	123
T_NUM_TAP	62
T_NUM_BRK	2
T_NUM_HLD	37
T_NUM_SLD	22
T_NUM_ALL	123
T_JUDGE_TAP	64
T_JUDGE_HLD	187
T_JUDGE_SLD	22
T_JUDGE_ALL	273
TTM_EACHPAIRS	8
TTM_SCR_TAP	31000
TTM_SCR_BRK	5200
TTM_SCR_HLD	37000
TTM_SCR_SLD	33000
TTM_SCR_ALL	106200
TTM_SCR_S	102850
TTM_SCR_SS	106000
TTM_RAT_ACV	10018

