VERSION	0.00.00	1.03.00
FES_MODE	0
BPM_DEF	147.000	147.000	147.000	147.000
MET_DEF	4	4
RESOLUTION	384
CLK_DEF	384
COMPATIBLE_CODE	MA2

BPM	0	0	147.000
MET	0	0	4	4

TAP	6	0	0
TAP	6	144	0
TAP	6	288	0
TAP	8	0	7
TAP	8	144	7
TAP	8	288	7
HLD	10	0	6	144
HLD	10	288	5	144
STR	12	0	4
SI_	12	0	4	96	192	7
TAP	14	0	0
TAP	14	144	0
TAP	15	0	1
TAP	15	144	1
TAP	16	0	0
TAP	16	144	0
TAP	17	0	7
TAP	17	144	7
TAP	18	0	6
TAP	18	144	6
TAP	19	0	5
TAP	19	144	5
HLD	20	0	4	672
STR	22	0	3
SI_	22	0	3	96	192	7
HLD	23	0	0	288
HLD	24	0	1	288
HLD	25	0	2	288
STR	26	0	3
SI_	26	0	3	96	192	0
STR	27	0	4
SI_	27	0	4	96	192	7
TAP	28	0	4
TAP	28	192	3
TAP	29	0	2
TAP	29	192	1
HLD	30	0	0	96
HLD	30	192	0	192
HLD	30	192	7	192
STR	32	0	7
SI_	32	0	7	96	192	2
TAP	34	0	0
TAP	34	192	7
HLD	35	0	6	288
TAP	36	0	6
TAP	36	192	6
TAP	37	0	5
TAP	37	192	5
TAP	38	0	6
TAP	38	192	7
HLD	39	0	0	192
HLD	39	0	1	192
STR	40	0	2
SI_	40	0	2	96	192	7
TAP	42	0	6
TAP	42	192	5
HLD	43	0	4	288
TAP	44	0	5
TAP	44	192	6
TAP	45	0	7
TAP	45	192	0
TAP	46	0	6
TAP	46	192	4
HLD	47	0	2	384
HLD	49	12	1	288
HLD	50	12	0	288
HLD	51	12	7	288
HLD	52	12	6	288
HLD	53	12	4	672
HLD	53	12	5	672
TAP	57	12	3
HLD	57	156	3	144
TAP	58	12	4
HLD	58	156	4	144
TAP	59	12	5
HLD	59	156	5	144
TAP	60	12	7
HLD	60	156	7	144
HLD	61	12	0	384
TAP	62	300	0
BRK	62	348	0

T_REC_TAP	43
T_REC_BRK	1
T_REC_XTP	0
T_REC_HLD	25
T_REC_XHO	0
T_REC_STR	6
T_REC_BST	0
T_REC_XST	0
T_REC_TTP	0
T_REC_THO	0
T_REC_SLD	6
T_REC_ALL	81
T_NUM_TAP	49
T_NUM_BRK	1
T_NUM_HLD	25
T_NUM_SLD	6
T_NUM_ALL	81
T_JUDGE_TAP	50
T_JUDGE_HLD	148
T_JUDGE_SLD	6
T_JUDGE_ALL	204
TTM_EACHPAIRS	3
TTM_SCR_TAP	24500
TTM_SCR_BRK	2600
TTM_SCR_HLD	25000
TTM_SCR_SLD	9000
TTM_SCR_ALL	61100
TTM_SCR_S	59200
TTM_SCR_SS	61000
TTM_RAT_ACV	10016

