VERSION	0.00.00	1.03.00
FES_MODE	0
BPM_DEF	180.000	180.000	180.000	180.000
MET_DEF	4	4
RESOLUTION	384
CLK_DEF	384
COMPATIBLE_CODE	MA2

BPM	0	0	180.000
MET	0	0	4	4

HLD	1	0	5	288
HLD	2	0	3	288
HLD	3	0	1	288
HLD	4	0	3	288
HLD	5	0	5	288
STR	5	288	7
SI_	5	288	7	96	96	4
HLD	6	0	3	288
STR	6	288	0
SI_	6	288	0	96	96	3
HLD	7	0	1	288
STR	7	288	7
SI_	7	288	7	96	96	4
HLD	8	0	3	289
STR	8	288	0
SI_	8	288	0	96	96	3
TAP	9	0	6
TAP	9	96	5
BRK	9	192	1
BRK	9	192	6
TAP	9	288	0
TAP	9	336	1
HLD	10	48	7	96
TAP	10	144	6
TAP	10	192	5
TAP	10	240	4
TAP	10	288	5
TAP	10	360	7
TAP	11	1	7
TAP	11	48	0
TAP	11	144	1
TAP	11	192	7
TAP	11	288	5
TAP	11	336	4
HLD	12	48	2	96
TAP	12	144	1
TAP	12	192	0
TAP	12	240	7
TAP	12	288	0
TAP	12	360	6
TAP	13	0	6
TAP	13	48	5
TAP	13	144	6
TAP	13	192	0
TAP	13	288	2
STR	13	336	4
SI_	13	336	4	96	96	0
TAP	14	144	7
TAP	14	192	7
STR	14	288	6
SI_	14	288	6	96	96	2
TAP	15	0	1
HLD	15	48	1	96
TAP	15	144	3
HLD	15	192	3	96
TAP	15	288	4
STR	15	336	4
SI_	15	336	4	96	96	0
TAP	16	144	7
TAP	16	192	7
STR	16	288	6
SI_	16	288	6	96	96	2
TAP	17	0	1
HLD	17	48	1	96
TAP	17	144	6
HLD	17	192	6	96
HLD	17	288	0	96
TAP	18	0	1
HLD	18	48	2	96
TAP	18	144	1
TAP	18	192	1
HLD	18	288	6	96
TAP	19	0	5
HLD	19	48	4	96
TAP	19	144	5
TAP	19	192	6
HLD	19	288	7	96
TAP	20	0	0
HLD	20	48	1	96
TAP	20	144	0
TAP	20	192	7
TAP	20	240	6
TAP	20	288	7
HLD	20	336	0	240
TAP	21	48	1
TAP	21	144	2
TAP	21	192	2
HLD	21	288	4	96
TAP	22	0	5
HLD	22	48	6	96
TAP	22	144	5
TAP	22	192	5
HLD	22	288	3	96
TAP	23	0	2
HLD	23	48	1	96
TAP	23	144	2
TAP	23	192	3
HLD	23	288	7	96
TAP	24	0	0
HLD	24	48	1	96
TAP	24	144	0
TAP	24	192	7
TAP	24	240	6
HLD	24	288	5	96
TAP	25	0	3
HLD	25	48	1	96
TAP	25	144	0
TAP	25	192	7
TAP	25	240	6
STR	25	288	7
SI_	25	288	7	96	48	2
HLD	26	48	1	96
TAP	26	144	4
TAP	26	192	5
STR	26	288	4
SI_	26	288	4	96	48	1
HLD	27	48	2	96
TAP	27	144	6
TAP	27	192	6
STR	27	288	7
SI_	27	288	7	96	48	2
HLD	28	48	1	96
TAP	28	144	4
STR	28	192	5
SCL	28	192	5	96	48	2
STR	28	336	0
SI_	28	336	0	96	48	4
STR	29	48	6
SI_	29	48	6	96	48	2
HLD	29	192	3	96
STR	29	288	5
SI_	29	288	5	96	48	1
HLD	30	48	7	96
TAP	30	144	6
TAP	30	192	5
STR	30	288	7
SI_	30	288	7	96	48	3
HLD	31	48	1	96
TAP	31	144	2
TAP	31	192	3
STR	31	288	2
SI_	31	288	2	96	48	6
HLD	32	48	5	96
TAP	32	144	4
STR	32	192	3
SCR	32	192	3	96	48	6
TAP	33	0	7
HLD	33	48	7	96
TAP	33	144	6
HLD	33	192	5	96
BRK	33	288	4
HLD	34	96	0	96
TAP	34	192	1
HLD	34	240	2	96
TAP	34	336	1
TAP	35	0	1
HLD	35	96	6	96
TAP	35	192	5
HLD	35	240	4	96
TAP	35	336	5
TAP	36	0	6
HLD	36	96	7	96
TAP	36	192	0
HLD	36	240	1	96
TAP	36	336	0
TAP	37	0	7
TAP	37	48	6
TAP	37	96	7
HLD	37	144	0	240
TAP	37	240	1
TAP	37	336	2
TAP	38	0	2
HLD	38	96	4	96
TAP	38	192	5
HLD	38	240	6	96
TAP	38	336	5
TAP	39	0	5
HLD	39	96	3	96
TAP	39	192	2
HLD	39	240	1	96
TAP	39	336	2
TAP	40	0	3
HLD	40	96	7	96
TAP	40	192	0
HLD	40	240	1	96
TAP	40	336	0
TAP	41	0	7
TAP	41	48	6
HLD	41	96	5	96
TAP	41	192	3
HLD	41	240	1	96
TAP	41	336	0
TAP	42	0	7
HLD	42	96	0	96
TAP	42	96	4
TAP	42	192	5
HLD	42	240	2	144
TAP	42	240	6
TAP	42	336	5
TAP	43	0	4
TAP	43	96	3
HLD	43	96	7	96
TAP	43	192	2
TAP	43	240	1
HLD	43	240	5	144
TAP	43	336	2
TAP	43	383	3
HLD	44	96	3	96
TAP	44	96	7
TAP	44	192	6
HLD	44	240	1	144
TAP	44	240	5
TAP	44	336	6
TAP	44	383	7
HLD	45	96	0	96
TAP	45	96	4
TAP	45	192	5
HLD	45	240	2	96
TAP	45	240	6
BRK	46	0	2
BRK	46	0	3
HLD	46	96	0	96
TAP	46	96	4
TAP	46	192	5
HLD	46	240	2	144
TAP	46	240	6
TAP	46	336	5
TAP	47	0	4
TAP	47	96	3
HLD	47	96	7	96
TAP	47	192	2
TAP	47	240	1
HLD	47	240	5	144
TAP	47	336	2
TAP	47	383	3
HLD	48	96	0	96
TAP	48	96	4
TAP	48	192	5
HLD	48	240	1	96
TAP	48	240	7
TAP	48	336	2
TAP	49	0	3
TAP	49	48	2
HLD	49	96	1	144
TAP	49	144	0
TAP	49	192	6
TAP	49	240	5
TAP	49	336	0
TAP	49	336	6
TAP	50	0	1
TAP	50	0	7
HLD	50	96	0	144
TAP	50	240	2
HLD	50	288	1	144
TAP	51	48	2
HLD	51	96	0	144
TAP	51	240	2
HLD	51	288	1	144
TAP	52	48	5
HLD	52	96	7	144
TAP	52	240	5
HLD	52	288	6	144
TAP	53	48	5
HLD	53	96	7	144
TAP	53	240	5
HLD	53	288	6	144
TAP	54	48	5
HLD	54	96	7	96
TAP	54	192	0
TAP	54	240	1
TAP	54	288	0
TAP	54	336	7
TAP	55	0	6
TAP	55	48	5
TAP	55	96	6
TAP	55	144	7
TAP	55	192	0
TAP	55	240	1
TAP	55	288	2
TAP	56	96	1
TAP	56	192	1
TAP	56	288	0
TAP	57	0	0
BRK	57	96	6
BRK	57	96	7
BRK	57	192	0
BRK	57	192	5
BRK	57	288	1
BRK	57	288	4
BRK	58	0	2
BRK	58	0	3
TAP	58	336	1
TAP	59	0	1
TAP	59	48	1
TAP	59	96	1
HLD	59	96	7	96
TAP	59	192	6
HLD	59	240	0	96
TAP	59	336	1
TAP	60	0	2
TAP	60	48	3
BRK	60	96	0
BRK	60	96	7
TAP	60	144	6
TAP	60	192	5
TAP	60	240	6
TAP	60	288	7
TAP	60	336	0
HLD	61	48	1	96
TAP	61	144	7
TAP	61	192	6
TAP	61	240	5
HLD	61	288	6	96
TAP	62	0	7
TAP	62	48	0
TAP	62	96	2
TAP	62	168	1
TAP	62	192	1
TAP	62	240	0
TAP	62	288	7
TAP	62	336	6
HLD	63	96	1	96
TAP	63	96	7
TAP	63	192	2
HLD	63	240	3	96
TAP	63	336	4
TAP	64	0	5
TAP	64	48	6
TAP	64	96	3
TAP	64	96	4
TAP	64	144	2
TAP	64	192	1
TAP	64	240	2
TAP	64	288	3
TAP	64	336	4
HLD	65	48	5	96
TAP	65	144	4
TAP	65	192	3
TAP	65	240	2
TAP	65	288	1
TAP	65	360	0
TAP	66	0	0
HLD	66	48	1	96
TAP	66	144	2
TAP	66	192	3
TAP	66	240	2
TAP	66	288	1
TAP	67	96	0
HLD	67	96	7	96
TAP	67	192	6
HLD	67	240	0	96
TAP	67	336	1
TAP	68	0	2
TAP	68	48	3
BRK	68	96	0
BRK	68	96	7
TAP	68	144	6
TAP	68	192	5
TAP	68	240	6
TAP	68	288	7
TAP	68	336	0
HLD	69	48	2	96
TAP	69	144	3
TAP	69	192	4
TAP	69	240	5
HLD	69	288	6	96
TAP	70	0	7
TAP	70	48	0
TAP	70	96	1
TAP	70	168	0
TAP	70	192	0
TAP	70	240	7
TAP	70	288	6
TAP	70	336	5
HLD	71	96	1	96
TAP	71	96	7
TAP	71	192	2
HLD	71	240	5	96
TAP	71	336	4
TAP	72	0	3
TAP	72	48	2
TAP	72	96	3
TAP	72	96	4
TAP	72	144	5
TAP	72	192	6
TAP	72	240	7
TAP	72	288	0
TAP	72	336	0
HLD	73	48	7	96
TAP	73	192	7
TAP	73	240	6
TAP	73	288	7
TAP	74	0	0
HLD	74	48	1	96
TAP	74	144	2
TAP	74	192	1
TAP	74	240	0
TAP	74	288	7
HLD	75	48	6	720
BRK	76	336	0
BRK	77	0	0

T_REC_TAP	252
T_REC_BRK	19
T_REC_XTP	0
T_REC_HLD	94
T_REC_XHO	0
T_REC_STR	18
T_REC_BST	0
T_REC_XST	0
T_REC_TTP	0
T_REC_THO	0
T_REC_SLD	18
T_REC_ALL	401
T_NUM_TAP	270
T_NUM_BRK	19
T_NUM_HLD	94
T_NUM_SLD	18
T_NUM_ALL	401
T_JUDGE_TAP	289
T_JUDGE_HLD	254
T_JUDGE_SLD	18
T_JUDGE_ALL	561
TTM_EACHPAIRS	30
TTM_SCR_TAP	135000
TTM_SCR_BRK	49400
TTM_SCR_HLD	94000
TTM_SCR_SLD	27000
TTM_SCR_ALL	305400
TTM_SCR_S	294400
TTM_SCR_SS	303500
TTM_RAT_ACV	10062

