VERSION	0.00.00	1.03.00
FES_MODE	0
BPM_DEF	180.000	180.000	180.000	180.000
MET_DEF	4	4
RESOLUTION	384
CLK_DEF	384
COMPATIBLE_CODE	MA2

BPM	0	0	180.000
MET	0	0	4	4

HLD	1	0	4	768
STR	1	288	3
SI_	1	288	3	96	288	0
HLD	3	0	0	768
STR	3	288	7
SI_	3	288	7	96	288	4
HLD	5	0	6	768
STR	5	288	5
SI_	5	288	5	96	288	2
HLD	7	0	2	768
STR	7	288	1
SI_	7	288	1	96	288	6
TAP	9	0	0
TAP	9	96	6
BRK	9	192	4
TAP	9	288	6
TAP	9	336	7
TAP	10	48	1
TAP	10	144	7
TAP	10	192	7
TAP	10	240	6
TAP	10	288	5
TAP	11	0	2
TAP	11	48	3
TAP	11	144	5
TAP	11	192	4
TAP	11	288	1
TAP	11	336	0
TAP	12	48	6
TAP	12	144	0
TAP	12	192	0
TAP	12	240	1
TAP	12	288	2
TAP	13	0	5
TAP	13	48	4
TAP	13	144	2
TAP	13	192	3
TAP	13	288	6
TAP	13	336	7
TAP	14	48	0
TAP	14	48	1
TAP	14	144	7
TAP	14	192	7
TAP	14	240	6
TAP	14	288	5
TAP	15	0	2
TAP	15	48	3
TAP	15	144	5
TAP	15	192	4
TAP	15	288	1
TAP	15	336	0
TAP	16	48	6
TAP	16	48	7
TAP	16	144	0
TAP	16	192	0
TAP	16	240	1
TAP	16	288	2
TAP	17	0	5
TAP	17	48	4
TAP	17	144	2
TAP	17	192	3
HLD	17	288	7	144
TAP	18	48	6
HLD	18	144	5	96
TAP	18	240	4
HLD	18	288	3	144
TAP	19	48	2
HLD	19	144	1	96
TAP	19	240	0
HLD	19	288	1	144
TAP	20	48	2
HLD	20	144	3	96
TAP	20	240	4
HLD	20	288	5	144
TAP	21	48	6
HLD	21	144	7	96
TAP	21	240	0
HLD	21	288	1	144
TAP	22	48	0
HLD	22	144	7	96
TAP	22	240	6
HLD	22	288	5	144
TAP	23	48	4
HLD	23	144	3	96
TAP	23	240	2
HLD	23	288	4	144
TAP	24	48	5
HLD	24	144	6	96
TAP	24	240	7
HLD	24	288	0	144
TAP	25	48	1
HLD	25	144	2	96
TAP	25	240	3
HLD	25	288	7	144
HLD	26	48	6	96
TAP	26	144	3
TAP	26	240	4
HLD	26	288	0	144
HLD	27	48	1	96
TAP	27	144	4
TAP	27	240	3
HLD	27	288	6	144
HLD	28	48	7	96
TAP	28	144	4
TAP	28	240	3
HLD	28	288	1	144
HLD	29	48	0	96
TAP	29	144	3
TAP	29	240	4
HLD	29	288	7	144
TAP	30	48	6
TAP	30	144	4
TAP	30	144	5
TAP	30	240	3
HLD	30	288	0	144
TAP	31	48	1
TAP	31	144	2
TAP	31	144	3
TAP	31	240	4
HLD	31	288	6	144
TAP	32	48	7
TAP	32	144	3
TAP	32	144	5
TAP	32	240	4
HLD	32	288	1	144
TAP	33	48	0
TAP	33	144	2
TAP	33	144	4
TAP	33	240	3
TAP	33	240	5
BRK	33	288	4
STR	34	96	7
SCR	34	96	7	96	96	2
TAP	34	336	5
TAP	35	48	3
STR	35	96	0
SCL	35	96	0	96	96	5
TAP	35	336	2
TAP	36	48	4
STR	36	96	7
SCR	36	96	7	96	96	2
TAP	36	336	5
TAP	37	48	2
STR	37	96	0
SCL	37	96	0	96	96	5
TAP	37	336	2
TAP	38	48	5
STR	38	96	7
SCR	38	96	7	96	96	2
TAP	38	336	4
TAP	38	336	5
TAP	39	48	3
STR	39	96	0
SCL	39	96	0	96	96	5
TAP	39	336	2
TAP	39	336	3
TAP	40	48	4
STR	40	96	7
SCR	40	96	7	96	96	2
TAP	40	336	3
TAP	40	336	5
TAP	41	48	4
STR	41	96	0
SCL	41	96	0	96	96	5
TAP	41	336	2
TAP	41	336	4
TAP	42	48	3
TAP	42	48	5
TAP	42	96	4
STR	42	192	6
SCR	42	192	6	96	96	1
TAP	42	240	6
TAP	43	48	3
TAP	43	96	3
STR	43	192	1
SCL	43	192	1	96	96	6
TAP	43	240	1
TAP	44	48	4
TAP	44	96	4
STR	44	192	7
SCR	44	192	7	96	96	2
TAP	44	240	7
TAP	45	48	4
TAP	45	96	4
STR	45	192	2
SCL	45	192	2	96	96	7
TAP	45	240	2
TAP	46	48	3
TAP	46	96	3
STR	46	192	5
SCR	46	192	5	96	96	0
TAP	46	240	5
TAP	47	48	2
TAP	47	96	2
STR	47	192	0
SCL	47	192	0	96	96	5
TAP	47	240	0
TAP	48	48	3
TAP	48	96	3
STR	48	192	5
SCL	48	192	5	96	96	2
TAP	48	240	5
TAP	49	48	0
TAP	49	96	0
STR	49	192	2
SCR	49	192	2	96	96	5
TAP	49	240	2
HLD	50	96	0	96
HLD	50	192	2	96
HLD	50	288	4	96
HLD	51	0	6	96
HLD	51	96	5	96
HLD	51	192	3	96
TAP	51	288	1
STR	52	96	0
SI_	52	96	0	96	48	3
STR	52	96	4
SI_	52	96	4	96	48	7
STR	52	288	3
SI_	52	288	3	96	48	0
STR	52	288	7
SI_	52	288	7	96	48	4
STR	53	96	0
SI_	53	96	0	96	48	3
STR	53	96	4
SI_	53	96	4	96	48	7
STR	53	288	3
SI_	53	288	3	96	48	0
STR	53	288	7
SI_	53	288	7	96	48	4
HLD	54	96	7	96
HLD	54	192	5	96
HLD	54	288	3	96
HLD	55	0	1	96
HLD	55	96	2	96
HLD	55	192	4	96
TAP	55	288	6
STR	56	96	2
SCL	56	96	2	96	96	7
STR	56	192	7
SCL	56	192	7	96	96	4
TAP	56	288	4
STR	57	96	5
SCR	57	96	5	96	96	0
STR	57	192	0
SCR	57	192	0	96	96	3
TAP	57	288	3
BRK	58	336	4
BRK	59	0	5
BRK	59	48	6
HLD	59	96	7	144
HLD	59	240	1	96
HLD	59	336	3	96
TAP	60	48	2
TAP	60	96	1
TAP	60	144	0
TAP	60	192	1
TAP	60	240	2
TAP	60	288	1
TAP	60	336	0
HLD	61	48	1	96
TAP	61	144	3
TAP	61	192	4
TAP	61	240	5
HLD	61	288	6	96
TAP	62	0	4
TAP	62	48	3
HLD	62	96	2	96
TAP	62	192	0
TAP	62	240	7
TAP	62	288	6
TAP	62	336	5
HLD	63	96	0	144
HLD	63	240	6	96
HLD	63	336	4	96
TAP	64	48	5
TAP	64	96	6
TAP	64	144	7
TAP	64	192	6
TAP	64	240	5
TAP	64	288	6
TAP	64	336	7
HLD	65	48	7	96
TAP	65	144	6
TAP	65	192	5
TAP	65	240	4
HLD	65	288	0	96
TAP	66	0	1
TAP	66	48	2
TAP	66	144	5
TAP	66	192	4
TAP	66	240	3
BRK	66	288	2
STR	67	96	7
SI_	67	96	7	96	96	3
STR	67	240	0
SI_	67	240	0	96	96	4
TAP	68	48	7
TAP	68	96	6
TAP	68	144	7
TAP	68	192	0
TAP	68	240	1
TAP	68	288	0
TAP	68	336	7
HLD	69	48	0	96
TAP	69	144	1
TAP	69	192	2
TAP	69	240	3
HLD	69	288	4	96
TAP	70	0	7
TAP	70	48	6
HLD	70	96	5	96
TAP	70	192	7
TAP	70	240	0
TAP	70	288	1
TAP	70	336	2
STR	71	96	0
SI_	71	96	0	96	96	4
STR	71	240	7
SI_	71	240	7	96	96	3
TAP	72	48	0
TAP	72	96	1
TAP	72	144	0
TAP	72	192	7
TAP	72	240	6
TAP	72	288	7
TAP	72	336	0
HLD	73	48	7	96
TAP	73	144	3
TAP	73	192	2
TAP	73	240	1
HLD	73	288	0	96
TAP	74	0	7
HLD	74	48	3	96
TAP	74	144	4
TAP	74	192	5
TAP	74	240	6
TAP	74	288	7
STR	75	48	0
SCL	75	48	0	96	96	5
STR	75	48	4
SCL	75	48	4	96	96	1
STR	76	48	1
SCR	76	48	1	96	96	4
STR	76	48	5
SCR	76	48	5	96	96	0
BRK	76	336	7
BRK	77	0	7

T_REC_TAP	199
T_REC_BRK	8
T_REC_XTP	0
T_REC_HLD	61
T_REC_XHO	0
T_REC_STR	40
T_REC_BST	0
T_REC_XST	0
T_REC_TTP	0
T_REC_THO	0
T_REC_SLD	40
T_REC_ALL	348
T_NUM_TAP	239
T_NUM_BRK	8
T_NUM_HLD	61
T_NUM_SLD	40
T_NUM_ALL	348
T_JUDGE_TAP	247
T_JUDGE_HLD	196
T_JUDGE_SLD	40
T_JUDGE_ALL	483
TTM_EACHPAIRS	18
TTM_SCR_TAP	119500
TTM_SCR_BRK	20800
TTM_SCR_HLD	61000
TTM_SCR_SLD	60000
TTM_SCR_ALL	261300
TTM_SCR_S	252700
TTM_SCR_SS	260500
TTM_RAT_ACV	10030

