VERSION	0.00.00	1.03.00
FES_MODE	0
BPM_DEF	180.000	180.000	180.000	180.000
MET_DEF	4	4
RESOLUTION	384
CLK_DEF	384
COMPATIBLE_CODE	MA2

BPM	0	0	180.000
MET	0	0	4	4

HLD	1	0	0	288
TAP	1	288	7
HLD	2	0	0	288
TAP	2	288	7
HLD	3	0	7	288
TAP	3	288	6
HLD	4	0	6	288
TAP	4	288	5
HLD	5	0	5	288
TAP	5	288	4
HLD	6	0	4	288
TAP	6	288	3
HLD	7	0	2	288
TAP	7	288	3
HLD	8	0	1	288
TAP	8	288	2
TAP	9	0	2
TAP	9	96	1
BRK	9	192	0
HLD	9	288	1	144
TAP	10	48	2
TAP	10	144	2
TAP	10	192	2
HLD	10	288	6	144
TAP	11	48	5
TAP	11	144	5
TAP	11	192	5
HLD	11	288	4	144
TAP	12	48	3
TAP	12	144	5
TAP	12	192	5
HLD	12	288	7	144
TAP	13	48	0
TAP	13	144	1
TAP	13	192	1
HLD	13	288	1	144
TAP	14	48	2
TAP	14	144	4
TAP	14	192	4
HLD	14	288	3	144
TAP	15	48	4
TAP	15	144	5
TAP	15	192	5
HLD	15	288	5	144
TAP	16	48	4
TAP	16	144	6
TAP	16	192	6
HLD	16	288	6	144
TAP	17	48	5
TAP	17	144	7
TAP	17	192	7
TAP	17	288	1
TAP	18	0	7
TAP	18	48	7
TAP	18	192	6
TAP	18	288	5
TAP	19	0	3
TAP	19	48	3
TAP	19	192	4
TAP	19	288	5
TAP	20	0	7
TAP	20	48	7
TAP	20	192	6
TAP	20	288	4
TAP	21	0	2
TAP	21	48	2
TAP	21	192	3
TAP	21	288	4
TAP	22	0	5
HLD	22	48	5	144
TAP	22	288	3
TAP	23	0	2
HLD	23	48	2	144
TAP	23	288	4
TAP	24	0	6
HLD	24	48	6	144
TAP	24	288	7
TAP	25	0	0
BRK	25	48	0
TAP	25	288	7
TAP	26	0	6
HLD	26	48	6	144
TAP	26	192	5
TAP	26	288	7
TAP	27	0	0
HLD	27	48	0	144
TAP	27	192	1
TAP	27	288	0
TAP	28	0	7
HLD	28	48	7	144
TAP	28	192	6
TAP	28	288	7
TAP	29	0	1
HLD	29	48	1	144
TAP	29	192	2
TAP	29	288	1
TAP	30	0	0
HLD	30	48	0	144
TAP	30	192	7
TAP	30	288	6
TAP	31	0	5
HLD	31	48	5	144
TAP	31	192	4
TAP	31	288	5
TAP	32	0	7
TAP	32	48	7
TAP	32	192	0
TAP	32	288	1
TAP	33	0	2
TAP	33	48	2
TAP	33	192	0
TAP	33	288	0
TAP	33	288	7
TAP	34	96	7
TAP	34	192	6
HLD	34	240	6	144
TAP	35	0	5
TAP	35	96	7
TAP	35	192	0
HLD	35	240	0	144
TAP	36	0	1
TAP	36	96	2
TAP	36	192	3
HLD	36	240	3	144
TAP	37	0	4
TAP	37	96	2
TAP	37	192	1
HLD	37	240	1	144
TAP	38	0	0
TAP	38	96	0
TAP	38	192	7
HLD	38	240	7	144
TAP	39	0	6
TAP	39	96	7
TAP	39	192	0
TAP	39	240	0
TAP	40	0	1
TAP	40	96	2
TAP	40	192	2
HLD	40	240	3	144
TAP	41	0	4
TAP	41	96	3
TAP	41	192	2
HLD	41	240	2	144
BRK	42	0	1
TAP	42	96	7
TAP	42	192	6
HLD	42	240	6	144
TAP	43	0	5
TAP	43	96	7
TAP	43	192	0
HLD	43	240	0	144
TAP	44	0	1
TAP	44	96	3
TAP	44	192	4
HLD	44	240	4	144
TAP	45	0	5
TAP	45	96	2
TAP	45	192	1
STR	45	240	0
SI_	45	240	0	96	96	3
TAP	46	96	4
TAP	46	192	5
TAP	46	240	5
TAP	47	0	3
TAP	47	0	4
TAP	47	96	2
TAP	47	192	1
TAP	47	240	1
TAP	48	0	0
TAP	48	0	7
TAP	48	96	6
TAP	48	192	5
HLD	48	240	5	145
TAP	49	0	4
TAP	49	96	5
TAP	49	192	6
HLD	49	240	6	144
TAP	50	0	7
TAP	50	96	5
TAP	50	192	4
TAP	50	288	3
TAP	51	0	2
TAP	51	96	1
TAP	51	192	0
TAP	51	288	0
TAP	51	288	7
TAP	52	96	1
TAP	52	192	5
TAP	52	288	2
TAP	53	0	6
TAP	53	96	3
TAP	53	192	4
TAP	53	288	0
TAP	53	288	7
TAP	54	0	0
TAP	54	0	7
TAP	54	96	0
TAP	54	192	7
TAP	54	288	6
TAP	55	0	5
TAP	55	96	4
TAP	55	192	3
TAP	55	288	1
TAP	55	288	2
TAP	56	96	3
TAP	56	192	4
TAP	56	288	5
TAP	57	0	6
TAP	57	96	4
TAP	57	96	5
TAP	57	192	3
TAP	57	192	4
TAP	57	288	2
TAP	57	288	3
BRK	58	0	0
BRK	58	0	1
HLD	59	96	1	144
HLD	59	240	2	144
TAP	60	0	4
TAP	60	96	6
TAP	60	192	6
HLD	60	288	6	96
HLD	60	288	7	96
TAP	61	96	3
TAP	61	192	4
TAP	61	288	5
TAP	62	0	6
TAP	62	96	7
TAP	62	192	0
HLD	62	288	0	96
HLD	62	288	1	96
HLD	63	96	7	144
HLD	63	240	6	144
TAP	64	0	5
TAP	64	96	1
TAP	64	192	0
TAP	64	288	0
TAP	64	288	1
TAP	65	96	7
TAP	65	192	6
TAP	65	288	5
TAP	66	0	4
TAP	66	96	3
TAP	66	192	3
TAP	66	192	4
BRK	66	288	0
BRK	66	288	7
HLD	67	96	1	144
HLD	67	240	6	144
TAP	68	0	5
TAP	68	96	4
TAP	68	192	3
HLD	68	288	1	96
HLD	68	288	6	96
TAP	69	96	6
TAP	69	192	7
TAP	69	288	0
TAP	70	0	1
TAP	70	96	2
TAP	70	192	3
HLD	70	288	3	96
HLD	70	288	4	96
HLD	71	96	6	144
HLD	71	240	1	144
TAP	72	0	2
TAP	72	96	3
TAP	72	192	4
TAP	72	288	3
TAP	72	288	4
TAP	73	96	2
TAP	73	192	5
TAP	73	288	1
TAP	74	0	6
TAP	74	96	3
TAP	74	192	4
BRK	74	288	0
BRK	74	288	7
TAP	75	96	1
TAP	75	192	2
TAP	75	288	3
TAP	76	0	4
TAP	76	96	5
TAP	76	192	6
TAP	76	288	0
TAP	76	288	7

T_REC_TAP	222
T_REC_BRK	9
T_REC_XTP	0
T_REC_HLD	53
T_REC_XHO	0
T_REC_STR	1
T_REC_BST	0
T_REC_XST	0
T_REC_TTP	0
T_REC_THO	0
T_REC_SLD	1
T_REC_ALL	286
T_NUM_TAP	223
T_NUM_BRK	9
T_NUM_HLD	53
T_NUM_SLD	1
T_NUM_ALL	286
T_JUDGE_TAP	232
T_JUDGE_HLD	176
T_JUDGE_SLD	1
T_JUDGE_ALL	409
TTM_EACHPAIRS	21
TTM_SCR_TAP	111500
TTM_SCR_BRK	23400
TTM_SCR_HLD	53000
TTM_SCR_SLD	1500
TTM_SCR_ALL	189400
TTM_SCR_S	182850
TTM_SCR_SS	188500
TTM_RAT_ACV	10047

