VERSION	0.00.00	1.03.00
FES_MODE	0
BPM_DEF	180.000	180.000	180.000	180.000
MET_DEF	4	4
RESOLUTION	384
CLK_DEF	384
COMPATIBLE_CODE	MA2

BPM	0	0	180.000
MET	0	0	4	4

TAP	9	0	0
TAP	9	96	0
BRK	9	192	0
TAP	10	0	1
TAP	10	192	1
TAP	11	0	0
TAP	11	192	7
TAP	12	0	6
TAP	12	192	6
TAP	13	0	5
TAP	13	192	4
TAP	14	0	5
TAP	14	192	5
TAP	15	0	6
TAP	15	192	7
TAP	16	0	0
TAP	16	192	0
TAP	17	0	1
TAP	17	192	2
TAP	18	0	0
TAP	18	192	0
TAP	19	0	7
TAP	19	192	7
TAP	20	0	0
TAP	20	192	0
TAP	21	0	1
TAP	21	192	1
TAP	22	0	2
TAP	22	192	2
TAP	23	0	1
TAP	23	192	1
TAP	24	0	0
TAP	24	192	0
TAP	25	0	7
TAP	25	192	7
HLD	25	288	6	144
HLD	26	288	5	144
HLD	27	288	6	144
HLD	28	288	7	144
TAP	29	288	0
TAP	30	48	0
TAP	30	288	1
TAP	31	48	1
TAP	31	288	0
TAP	32	48	0
TAP	32	288	7
TAP	33	48	7
BRK	33	288	7
TAP	34	192	6
TAP	35	0	6
TAP	35	192	4
TAP	36	0	4
TAP	36	192	6
TAP	37	0	6
TAP	37	192	0
TAP	38	0	0
TAP	38	192	1
TAP	39	0	1
TAP	39	192	3
TAP	40	0	3
TAP	40	192	1
TAP	41	0	1
TAP	41	192	7
TAP	42	0	7
HLD	42	96	6	144
HLD	43	96	4	144
HLD	44	96	6	144
HLD	45	96	0	144
TAP	46	96	7
TAP	46	240	7
TAP	47	96	5
TAP	47	240	5
TAP	48	96	7
TAP	48	240	7
TAP	49	96	0
TAP	49	240	0
HLD	50	96	1	288
HLD	51	96	2	288
HLD	52	96	1	288
HLD	53	96	0	288
TAP	54	96	7
TAP	54	288	7
TAP	55	96	6
TAP	55	288	6
TAP	56	96	7
TAP	56	288	1
TAP	57	96	3
TAP	57	288	5
BRK	58	96	6
HLD	59	96	0	144
TAP	60	96	1
TAP	60	192	1
TAP	60	288	1
TAP	61	192	0
TAP	62	0	0
TAP	62	192	7
TAP	63	0	7
HLD	63	96	6	144
TAP	64	96	5
TAP	64	192	5
TAP	64	288	5
TAP	65	192	6
TAP	66	0	7
TAP	66	192	0
TAP	67	0	1
HLD	67	96	2	144
TAP	68	96	3
TAP	68	192	3
TAP	68	288	3
TAP	69	192	2
TAP	70	0	2
TAP	70	192	1
TAP	71	0	1
HLD	71	96	0	144
TAP	72	96	7
TAP	72	192	7
TAP	72	288	7
TAP	73	192	0
TAP	74	0	1
TAP	74	192	0
STR	75	0	7
SI_	75	0	7	96	288	4
TAP	76	336	0
BRK	77	0	0

T_REC_TAP	102
T_REC_BRK	4
T_REC_XTP	0
T_REC_HLD	16
T_REC_XHO	0
T_REC_STR	1
T_REC_BST	0
T_REC_XST	0
T_REC_TTP	0
T_REC_THO	0
T_REC_SLD	1
T_REC_ALL	124
T_NUM_TAP	103
T_NUM_BRK	4
T_NUM_HLD	16
T_NUM_SLD	1
T_NUM_ALL	124
T_JUDGE_TAP	107
T_JUDGE_HLD	60
T_JUDGE_SLD	1
T_JUDGE_ALL	168
TTM_EACHPAIRS	0
TTM_SCR_TAP	51500
TTM_SCR_BRK	10400
TTM_SCR_HLD	16000
TTM_SCR_SLD	1500
TTM_SCR_ALL	79400
TTM_SCR_S	76650
TTM_SCR_SS	79000
TTM_RAT_ACV	10050

