VERSION	0.00.00	1.03.00
FES_MODE	0
BPM_DEF	123.000	123.000	123.000	123.000
MET_DEF	4	4
RESOLUTION	384
CLK_DEF	384
COMPATIBLE_CODE	MA2

BPM	0	0	123.000
MET	0	0	4	4

TAP	1	0	5
TAP	1	96	3
TAP	1	192	1
BRK	1	288	1
TAP	2	0	3
TAP	2	48	3
TAP	2	96	4
TAP	2	120	4
TAP	2	168	3
TAP	2	216	3
TAP	2	264	2
TAP	2	288	2
TAP	2	336	3
TAP	3	0	4
TAP	3	48	4
TAP	3	96	5
TAP	3	120	5
TAP	3	168	4
TAP	3	192	4
TAP	3	240	3
TAP	3	288	3
TAP	4	0	4
TAP	4	48	4
TAP	4	96	5
TAP	4	120	5
TAP	4	168	4
TAP	4	216	4
TAP	4	264	3
TAP	4	288	3
TAP	4	336	4
TAP	5	0	5
TAP	5	48	5
TAP	5	96	6
TAP	5	120	6
TAP	5	168	7
TAP	5	192	7
TAP	5	240	0
TAP	5	240	1
TAP	5	288	1
TAP	5	288	2
STR	6	0	0
SCL	6	0	0	96	96	5
BRK	6	96	0
TAP	6	192	1
TAP	6	288	2
STR	7	0	7
SCR	7	0	7	96	96	2
BRK	7	96	7
TAP	7	192	6
TAP	7	288	5
STR	8	0	0
SCL	8	0	0	96	96	5
BRK	8	96	0
TAP	8	192	1
TAP	8	288	2
HLD	9	0	2	72
TAP	9	72	1
TAP	9	144	3
TAP	9	192	4
TAP	9	216	4
HLD	9	264	5	72
TAP	9	336	6
HLD	10	0	0	96
TAP	10	96	1
TAP	10	192	6
TAP	10	240	5
HLD	10	264	4	72
TAP	10	336	2
TAP	11	0	3
TAP	11	72	4
TAP	11	144	5
HLD	11	192	6	96
HLD	12	0	0	96
TAP	12	96	1
TAP	12	144	2
TAP	12	192	1
TAP	12	240	7
HLD	12	264	6	72
TAP	12	336	5
TAP	13	0	6
TAP	13	72	7
TAP	13	144	0
HLD	13	192	0	96
TAP	13	240	1
BRK	13	288	1
HLD	14	0	6	96
TAP	14	96	5
TAP	14	192	3
HLD	14	264	2	72
TAP	14	336	3
TAP	15	0	3
TAP	15	72	4
TAP	15	144	5
HLD	15	192	6	96
STR	15	288	0
SCR	15	288	0	96	96	3
BRK	16	0	7
STR	16	96	7
SCL	16	96	7	96	96	4
BRK	16	192	0
HLD	16	288	0	96
HLD	17	0	1	96
TAP	17	96	2
HLD	17	168	3	120
HLD	17	168	5	120
HLD	18	0	2	96
TAP	18	96	1
TAP	18	168	7
TAP	18	192	7
TAP	18	240	6
TAP	18	336	7
TAP	19	0	1
TAP	19	48	2
TAP	19	96	3
TAP	19	144	5
HLD	19	192	4	144
TAP	19	288	3
TAP	19	336	2
HLD	20	0	1	96
TAP	20	96	0
TAP	20	168	7
TAP	20	192	7
TAP	20	240	6
TAP	20	336	7
TAP	21	0	0
TAP	21	72	2
TAP	21	144	4
HLD	21	192	3	96
TAP	21	240	2
BRK	21	288	2
HLD	22	0	0	96
TAP	22	96	1
TAP	22	168	7
TAP	22	192	7
HLD	22	240	6	48
TAP	22	336	3
TAP	22	360	4
TAP	23	0	3
TAP	23	48	5
TAP	23	96	1
TAP	23	144	7
HLD	23	192	0	192
TAP	23	288	1
TAP	23	336	2
HLD	24	0	7	96
TAP	24	96	6
TAP	24	120	5
HLD	24	168	0	120
STR	24	288	1
SCL	24	288	1	96	96	6
TAP	25	96	0
BRK	25	168	0
TAP	26	0	5
TAP	26	48	4
TAP	26	96	5
TAP	26	144	4
TAP	26	192	3
TAP	26	240	4
TAP	26	288	3
TAP	26	336	4
TAP	27	0	3
TAP	27	48	2
TAP	27	96	3
TAP	27	144	2
TAP	27	192	1
TAP	27	240	2
TAP	27	288	1
TAP	27	336	2
TAP	28	0	3
TAP	28	48	4
TAP	28	96	3
TAP	28	144	4
TAP	28	192	5
TAP	28	240	6
TAP	28	288	7
TAP	28	336	6
HLD	29	0	0	192
TAP	29	144	1
HLD	29	192	2	96
TAP	30	0	2
HLD	30	0	6	96
TAP	30	96	5
HLD	30	192	0	96
TAP	30	192	4
TAP	30	288	1
TAP	31	0	3
HLD	31	0	7	96
TAP	31	96	6
HLD	31	192	1	96
TAP	31	192	5
TAP	31	288	2
TAP	31	336	3
TAP	32	0	5
TAP	32	48	7
TAP	32	144	5
TAP	32	192	3
TAP	32	240	1
TAP	32	336	2
STR	33	0	4
SI_	33	0	4	96	48	0
STR	33	96	2
SI_	33	96	2	96	48	7
TAP	33	144	2
STR	33	192	5
SI_	33	192	5	96	48	0
TAP	33	240	5
BRK	33	336	7
TAP	34	0	5
TAP	34	48	5
TAP	34	96	4
TAP	34	120	4
TAP	34	168	5
TAP	34	216	5
TAP	34	264	6
TAP	34	288	6
TAP	34	336	5
TAP	35	0	4
TAP	35	48	4
TAP	35	96	5
TAP	35	120	5
TAP	35	168	4
TAP	35	192	4
TAP	35	240	2
TAP	35	240	3
TAP	35	288	0
TAP	35	288	7
TAP	36	0	5
STR	36	0	7
SCR	36	0	7	96	24	2
BRK	36	96	7
TAP	36	192	3
TAP	36	216	3
HLD	36	264	2	72
TAP	36	336	3
STR	37	0	4
SCL	37	0	4	96	24	1
TAP	37	0	6
BRK	37	96	4
TAP	37	192	0
TAP	37	216	0
HLD	37	264	6	71
TAP	37	336	7
STR	38	0	0
SCL	38	0	0	96	24	5
TAP	38	0	2
BRK	38	96	0
TAP	38	192	2
TAP	38	192	6
TAP	38	288	3
TAP	38	288	7
TAP	39	0	2
TAP	39	0	6
TAP	39	48	1
TAP	39	96	0
TAP	39	96	4
TAP	39	144	5
TAP	39	192	3
HLD	39	216	7	48
HLD	39	264	0	72
TAP	39	336	1
TAP	40	0	5
STR	40	0	7
SCR	40	0	7	96	24	2
BRK	40	96	7
TAP	40	192	3
TAP	40	216	3
HLD	40	264	2	72
TAP	40	336	3
STR	41	0	4
SCL	41	0	4	96	24	1
TAP	41	0	6
BRK	41	96	4
TAP	41	192	0
TAP	41	216	0
HLD	41	264	6	71
TAP	41	336	7
STR	42	0	0
SCL	42	0	0	96	24	5
TAP	42	0	2
BRK	42	96	0
TAP	42	192	2
TAP	42	192	6
TAP	42	288	3
TAP	42	288	7
TAP	43	0	2
TAP	43	0	6
TAP	43	48	1
TAP	43	96	0
TAP	43	96	4
TAP	43	144	5
TAP	43	192	3
HLD	43	216	7	48
HLD	43	264	6	72
TAP	43	336	5
TAP	44	0	0
TAP	44	96	1
TAP	44	192	2
TAP	44	288	3
TAP	45	0	4
TAP	45	96	5
TAP	45	192	6
TAP	45	288	7
TAP	46	0	7
TAP	46	96	6
TAP	46	192	5
TAP	46	288	4
TAP	47	0	3
TAP	47	96	2
TAP	47	192	1
BRK	47	288	0
STR	48	0	0
SI_	48	0	0	96	384	4
STR	49	0	1
SI_	49	0	1	96	384	5
STR	50	0	2
SI_	50	0	2	96	384	6
STR	51	0	7
SCR	51	0	7	96	48	2
STR	51	96	7
SCL	51	96	7	96	48	4
STR	51	192	7
SI_	51	192	7	96	48	3
TAP	52	0	5
STR	52	0	7
SCR	52	0	7	96	24	2
BRK	52	96	7
TAP	52	192	3
TAP	52	216	3
HLD	52	264	2	72
TAP	52	336	3
STR	53	0	4
SCL	53	0	4	96	24	1
TAP	53	0	6
BRK	53	96	4
TAP	53	192	0
TAP	53	216	0
HLD	53	264	6	71
TAP	53	336	7
STR	54	0	0
SCL	54	0	0	96	24	5
TAP	54	0	2
BRK	54	96	0
TAP	54	192	2
TAP	54	192	6
TAP	54	288	3
TAP	54	288	7
STR	55	0	6
SI_	55	0	6	96	48	3
STR	55	96	1
SI_	55	96	1	96	48	4
STR	55	192	7
SI_	55	192	7	96	48	3
TAP	56	0	5
STR	56	0	7
SCR	56	0	7	96	24	2
BRK	56	96	7
TAP	56	192	3
TAP	56	216	3
HLD	56	264	2	72
TAP	56	336	3
STR	57	0	4
SCL	57	0	4	96	24	1
TAP	57	0	6
BRK	57	96	4
TAP	57	192	0
TAP	57	216	0
HLD	57	264	6	71
TAP	57	336	7
STR	58	0	0
SCL	58	0	0	96	24	5
TAP	58	0	2
TAP	58	192	2
TAP	58	192	6
TAP	58	288	3
TAP	58	288	7
TAP	59	0	6
TAP	59	48	3
TAP	59	96	0
TAP	59	144	5
HLD	59	192	0	144
TAP	59	216	1
TAP	59	264	7
TAP	59	336	6
STR	60	0	4
SI_	60	0	4	96	24	0
TAP	60	0	5
BRK	60	96	7
TAP	60	192	2
STR	60	192	3
SI_	60	192	3	96	24	7
BRK	60	288	0
STR	61	0	5
SI_	61	0	5	96	24	0
TAP	61	0	6
BRK	61	96	7
TAP	61	192	1
STR	61	192	2
SI_	61	192	2	96	24	7
BRK	61	288	0
TAP	62	0	6
STR	62	0	7
SCR	62	0	7	96	24	2
BRK	62	96	7
STR	62	192	0
SCL	62	192	0	96	24	5
TAP	62	192	1
BRK	62	288	0
STR	63	0	5
SI_	63	0	5	96	24	0
STR	63	96	2
SI_	63	96	2	96	24	7
STR	63	192	4
SI_	63	192	4	96	24	0
BRK	63	288	7

T_REC_TAP	264
T_REC_BRK	29
T_REC_XTP	0
T_REC_HLD	43
T_REC_XHO	0
T_REC_STR	39
T_REC_BST	0
T_REC_XST	0
T_REC_TTP	0
T_REC_THO	0
T_REC_SLD	39
T_REC_ALL	414
T_NUM_TAP	303
T_NUM_BRK	29
T_NUM_HLD	43
T_NUM_SLD	39
T_NUM_ALL	414
T_JUDGE_TAP	332
T_JUDGE_HLD	92
T_JUDGE_SLD	39
T_JUDGE_ALL	463
TTM_EACHPAIRS	39
TTM_SCR_TAP	151500
TTM_SCR_BRK	75400
TTM_SCR_HLD	43000
TTM_SCR_SLD	58500
TTM_SCR_ALL	328400
TTM_SCR_S	315750
TTM_SCR_SS	325500
TTM_RAT_ACV	10089

