VERSION	0.00.00	1.03.00
FES_MODE	0
BPM_DEF	123.000	123.000	123.000	123.000
MET_DEF	4	4
RESOLUTION	384
CLK_DEF	384
COMPATIBLE_CODE	MA2

BPM	0	0	123.000
MET	0	0	4	4

TAP	2	0	0
TAP	2	48	0
TAP	2	96	7
TAP	2	144	7
TAP	2	192	0
TAP	2	240	7
TAP	2	288	0
TAP	2	336	7
TAP	3	0	1
TAP	3	48	1
TAP	3	96	6
TAP	3	144	6
TAP	3	192	1
TAP	3	240	6
TAP	3	288	1
TAP	4	0	4
TAP	4	48	4
TAP	4	96	3
TAP	4	144	3
TAP	4	192	4
TAP	4	240	3
TAP	4	288	4
TAP	4	336	3
TAP	5	0	5
TAP	5	48	5
TAP	5	96	2
TAP	5	144	2
TAP	5	192	5
TAP	5	240	1
TAP	5	240	2
TAP	5	288	5
TAP	5	288	6
STR	6	0	4
SI_	6	0	4	96	48	0
TAP	6	96	1
TAP	6	192	2
TAP	6	240	2
TAP	6	288	2
STR	7	0	3
SI_	7	0	3	96	48	7
TAP	7	96	6
TAP	7	192	5
TAP	7	240	5
TAP	7	288	5
STR	8	0	4
SI_	8	0	4	96	48	0
TAP	8	96	1
TAP	8	192	2
TAP	8	240	2
TAP	8	288	2
STR	9	0	3
SI_	9	0	3	96	48	7
TAP	9	96	6
STR	9	192	4
SI_	9	192	4	96	48	0
TAP	9	288	1
TAP	10	96	0
TAP	10	96	7
TAP	10	192	1
TAP	10	240	2
TAP	10	288	1
TAP	11	0	6
TAP	11	48	5
TAP	11	96	6
TAP	11	144	7
TAP	11	192	0
TAP	12	0	1
STR	12	0	2
SI_	12	0	2	96	48	7
TAP	12	192	5
STR	12	192	6
SI_	12	192	6	96	48	3
TAP	13	0	2
TAP	13	48	3
TAP	13	96	4
TAP	13	144	5
TAP	13	192	4
HLD	14	0	2	96
TAP	14	0	4
TAP	14	96	3
TAP	14	192	3
HLD	14	192	5	96
TAP	14	288	4
HLD	15	0	2	96
TAP	15	0	4
HLD	15	96	5	96
HLD	15	192	2	96
TAP	15	288	4
TAP	15	336	3
TAP	16	0	1
TAP	16	0	2
TAP	16	96	4
TAP	16	120	4
TAP	16	168	5
TAP	16	168	6
TAP	16	288	7
TAP	16	336	0
TAP	17	0	1
TAP	17	0	2
TAP	17	96	7
TAP	17	144	6
TAP	17	168	5
TAP	17	168	6
TAP	18	0	2
TAP	18	0	3
TAP	18	96	4
STR	18	96	5
SI_	18	96	5	96	48	0
TAP	19	0	0
TAP	19	0	7
TAP	19	96	0
TAP	19	96	1
TAP	19	192	6
TAP	19	192	7
TAP	19	288	0
TAP	19	288	7
TAP	20	0	4
TAP	20	0	5
STR	20	96	2
SI_	20	96	2	96	48	7
TAP	20	96	3
TAP	21	0	5
TAP	21	0	6
TAP	21	96	2
TAP	21	96	3
TAP	21	192	1
TAP	21	192	2
TAP	21	288	4
TAP	21	288	5
HLD	22	0	1	96
TAP	22	0	6
TAP	22	96	7
TAP	22	192	1
HLD	22	192	6	96
TAP	22	288	0
HLD	23	0	1	96
TAP	23	0	6
HLD	23	96	6	96
HLD	23	192	1	96
STR	23	288	0
SCL	23	288	0	96	48	5
TAP	23	336	0
STR	24	96	1
SCR	24	96	1	96	48	4
TAP	24	120	1
STR	24	288	6
SCL	24	288	6	96	48	3
TAP	24	336	6
STR	25	96	7
SCR	25	96	7	96	48	2
TAP	25	144	7
TAP	26	0	5
TAP	26	48	5
TAP	26	96	4
TAP	26	144	4
TAP	26	192	3
TAP	26	240	3
TAP	26	288	2
TAP	26	336	2
TAP	27	0	3
TAP	27	48	4
TAP	27	96	3
TAP	27	144	4
STR	27	192	3
SI_	27	192	3	96	48	7
TAP	28	0	0
TAP	28	48	0
TAP	28	96	1
TAP	28	144	0
TAP	28	192	7
TAP	28	240	7
TAP	28	288	6
TAP	28	336	7
HLD	29	0	0	288
TAP	29	144	3
HLD	29	192	3	96
TAP	30	0	1
TAP	30	48	2
TAP	30	96	6
TAP	30	144	5
TAP	30	192	1
TAP	30	240	2
TAP	30	264	2
TAP	30	336	5
TAP	31	0	6
TAP	31	48	5
TAP	31	96	1
TAP	31	144	2
HLD	31	192	0	96
TAP	31	336	1
STR	32	0	1
SI_	32	0	1	96	48	4
TAP	32	144	6
STR	32	192	6
SI_	32	192	6	96	48	3
TAP	32	336	0
STR	33	0	0
SI_	33	0	0	96	48	5
STR	33	96	7
SI_	33	96	7	96	48	2
STR	33	192	0
SI_	33	192	0	96	48	4
TAP	34	0	7
TAP	34	48	7
TAP	34	96	0
TAP	34	120	7
TAP	34	168	0
TAP	34	216	7
TAP	34	264	0
TAP	34	288	7
TAP	34	336	0
TAP	35	0	7
TAP	35	48	7
TAP	35	96	0
TAP	35	120	7
TAP	35	168	0
TAP	35	192	7
BRK	35	240	1
BRK	35	288	6
TAP	36	0	3
TAP	36	0	4
BRK	36	96	0
BRK	36	96	7
TAP	36	192	4
TAP	36	216	3
TAP	36	264	1
TAP	36	336	2
TAP	37	0	3
BRK	37	96	0
BRK	37	96	7
TAP	37	192	3
TAP	37	216	4
TAP	37	264	6
TAP	37	336	5
TAP	38	0	4
BRK	38	96	0
BRK	38	96	7
HLD	38	192	6	96
HLD	38	288	7	96
TAP	39	0	0
TAP	39	48	1
TAP	39	96	7
TAP	39	144	6
TAP	39	192	1
TAP	39	240	2
TAP	39	288	6
TAP	39	336	5
TAP	40	0	4
BRK	40	96	0
BRK	40	96	7
TAP	40	192	2
TAP	40	216	3
TAP	40	264	6
TAP	40	336	5
TAP	41	0	4
BRK	41	96	0
BRK	41	96	7
TAP	41	192	5
TAP	41	216	4
TAP	41	264	1
TAP	41	336	2
TAP	42	0	3
BRK	42	96	0
BRK	42	96	7
HLD	42	192	5	96
HLD	42	288	1	96
TAP	43	0	0
TAP	43	48	1
TAP	43	96	6
TAP	43	144	7
TAP	43	192	0
TAP	43	240	1
TAP	43	288	7
TAP	43	336	6
TAP	44	0	5
TAP	44	96	5
TAP	44	192	3
TAP	44	288	3
TAP	45	0	2
TAP	45	96	2
TAP	45	192	4
TAP	45	288	4
TAP	46	0	5
TAP	46	96	3
TAP	46	192	2
TAP	46	288	4
TAP	47	0	5
TAP	47	48	3
TAP	47	96	2
TAP	47	144	4
TAP	47	192	5
TAP	47	240	3
TAP	47	288	3
TAP	47	288	4
STR	48	0	3
SI_	48	0	3	96	24	0
STR	48	0	4
SI_	48	0	4	96	24	7
STR	49	0	2
SI_	49	0	2	96	24	7
STR	49	0	3
SI_	49	0	3	96	24	6
STR	50	0	4
SI_	50	0	4	96	24	1
STR	50	0	5
SI_	50	0	5	96	24	0
TAP	51	0	0
TAP	51	48	1
TAP	51	96	0
TAP	51	144	7
TAP	51	192	0
TAP	51	240	1
TAP	51	288	2
TAP	51	336	3
STR	52	0	4
SI_	52	0	4	96	48	0
BRK	52	96	7
TAP	52	192	6
TAP	52	216	6
TAP	52	264	5
TAP	52	336	4
STR	53	0	3
SI_	53	0	3	96	48	7
BRK	53	96	0
TAP	53	192	1
TAP	53	216	1
TAP	53	264	2
TAP	53	336	3
STR	54	0	4
SI_	54	0	4	96	48	0
BRK	54	96	7
HLD	54	192	7	96
HLD	54	288	0	96
TAP	55	0	7
TAP	55	48	6
TAP	55	96	0
TAP	55	144	1
TAP	55	192	0
TAP	55	240	6
TAP	55	288	7
TAP	55	336	1
STR	56	0	3
SI_	56	0	3	96	48	6
BRK	56	96	7
TAP	56	192	7
TAP	56	216	7
TAP	56	264	6
TAP	56	336	5
STR	57	0	4
SI_	57	0	4	96	48	1
BRK	57	96	0
TAP	57	192	0
TAP	57	216	0
TAP	57	264	1
TAP	57	336	2
STR	58	0	3
SI_	58	0	3	96	48	6
BRK	58	96	7
HLD	58	192	0	96
HLD	58	288	7	96
TAP	59	0	0
TAP	59	48	1
TAP	59	96	0
TAP	59	144	7
TAP	59	192	6
TAP	59	216	6
TAP	59	264	7
TAP	59	336	0
TAP	60	0	1
STR	60	192	0
SCL	60	192	0	96	384	5
STR	60	192	7
SCR	60	192	7	96	384	2
TAP	62	96	0
TAP	62	96	7
TAP	62	192	1
TAP	62	192	2
TAP	62	288	5
TAP	62	288	6
TAP	63	0	7
TAP	63	24	7
TAP	63	72	0
TAP	63	144	1
TAP	63	192	0
TAP	63	216	0
TAP	63	264	7
TAP	63	336	6
TAP	64	0	0
TAP	64	0	7

T_REC_TAP	282
T_REC_BRK	20
T_REC_XTP	0
T_REC_HLD	21
T_REC_XHO	0
T_REC_STR	33
T_REC_BST	0
T_REC_XST	0
T_REC_TTP	0
T_REC_THO	0
T_REC_SLD	33
T_REC_ALL	389
T_NUM_TAP	315
T_NUM_BRK	20
T_NUM_HLD	21
T_NUM_SLD	33
T_NUM_ALL	389
T_JUDGE_TAP	335
T_JUDGE_HLD	46
T_JUDGE_SLD	33
T_JUDGE_ALL	414
TTM_EACHPAIRS	43
TTM_SCR_TAP	157500
TTM_SCR_BRK	52000
TTM_SCR_HLD	21000
TTM_SCR_SLD	49500
TTM_SCR_ALL	280000
TTM_SCR_S	269700
TTM_SCR_SS	278000
TTM_RAT_ACV	10071

