VERSION	0.00.00	1.03.00
FES_MODE	0
BPM_DEF	123.000	123.000	123.000	123.000
MET_DEF	4	4
RESOLUTION	384
CLK_DEF	384
COMPATIBLE_CODE	MA2

BPM	0	0	123.000
MET	0	0	4	4

TAP	2	96	0
TAP	2	288	0
TAP	3	96	1
TAP	3	240	1
TAP	3	288	1
TAP	4	96	0
TAP	4	288	0
TAP	5	96	7
TAP	5	240	7
BRK	5	288	7
STR	6	0	0
SI_	6	0	0	96	96	3
STR	7	0	2
SI_	7	0	2	96	96	5
STR	8	0	4
SI_	8	0	4	96	96	7
STR	9	0	6
SI_	9	0	6	96	96	1
TAP	10	96	7
TAP	10	192	7
TAP	10	288	6
TAP	11	96	0
TAP	11	192	1
TAP	11	288	2
TAP	12	96	0
TAP	12	192	0
TAP	12	288	7
TAP	13	96	6
TAP	13	192	5
TAP	13	288	3
TAP	13	288	4
TAP	14	96	6
TAP	14	192	6
TAP	14	288	7
TAP	15	96	0
TAP	15	192	1
TAP	15	288	2
TAP	15	288	3
HLD	16	0	1	288
BRK	16	96	0
BRK	16	288	7
TAP	17	0	0
TAP	17	96	1
TAP	17	192	2
TAP	17	288	3
TAP	18	96	0
TAP	18	96	1
TAP	18	192	7
TAP	18	288	6
TAP	18	288	7
HLD	19	96	0	96
HLD	19	192	1	96
TAP	19	288	2
TAP	20	96	3
TAP	20	96	4
TAP	20	192	2
TAP	20	288	1
TAP	20	288	2
TAP	21	96	0
TAP	21	96	7
TAP	21	192	6
TAP	21	288	5
TAP	21	288	6
TAP	22	96	0
TAP	22	96	7
TAP	22	192	1
TAP	22	288	1
TAP	22	288	2
HLD	23	96	7	96
HLD	23	192	6	96
TAP	23	288	5
TAP	24	0	6
TAP	24	96	0
TAP	24	96	7
TAP	24	192	1
TAP	24	288	1
TAP	24	288	2
TAP	25	0	0
TAP	25	96	0
TAP	25	96	7
TAP	25	192	6
TAP	25	192	7
TAP	25	288	5
TAP	25	288	6
HLD	26	0	3	192
HLD	26	192	5	192
HLD	27	0	1	192
HLD	27	192	7	192
HLD	28	0	0	192
HLD	28	192	6	192
HLD	29	0	2	192
HLD	29	192	4	192
TAP	30	0	3
TAP	30	96	3
TAP	30	192	5
TAP	30	288	5
TAP	31	0	1
TAP	31	96	1
TAP	31	192	7
TAP	31	288	7
TAP	32	0	6
TAP	32	0	7
TAP	32	192	0
TAP	32	192	1
TAP	33	0	0
TAP	33	0	7
TAP	33	96	6
TAP	33	96	7
TAP	33	192	0
TAP	33	192	1
TAP	33	288	6
TAP	33	288	7
STR	34	0	5
SI_	34	0	5	96	96	1
STR	35	0	3
SI_	35	0	3	96	96	7
HLD	36	0	0	96
BRK	36	96	7
TAP	36	192	1
TAP	36	288	3
HLD	37	0	5	96
BRK	37	96	6
TAP	37	192	5
TAP	37	288	3
HLD	38	0	1	96
BRK	38	96	0
HLD	38	192	1	96
HLD	38	288	2	96
TAP	39	0	3
TAP	39	96	4
TAP	39	192	5
TAP	39	288	6
TAP	39	288	7
HLD	40	0	0	96
BRK	40	96	1
TAP	40	192	6
TAP	40	288	4
HLD	41	0	2	96
BRK	41	96	1
TAP	41	192	2
TAP	41	288	4
HLD	42	0	6	96
BRK	42	96	7
TAP	42	192	0
TAP	42	192	7
TAP	42	288	0
TAP	42	288	1
HLD	43	0	7	96
HLD	43	96	5	96
HLD	43	192	3	96
HLD	43	288	1	96
STR	44	0	7
SI_	44	0	7	96	192	3
STR	45	0	0
SI_	45	0	0	96	192	4
STR	46	0	2
SI_	46	0	2	96	192	7
STR	47	0	5
SI_	47	0	5	96	192	0
HLD	48	0	1	384
HLD	49	0	5	384
HLD	50	0	2	384
TAP	51	0	3
TAP	51	96	4
TAP	51	192	5
TAP	51	288	6
TAP	51	288	7
TAP	52	0	7
TAP	52	96	0
BRK	52	96	7
TAP	52	192	1
TAP	52	288	2
TAP	53	0	1
BRK	53	96	0
TAP	53	96	7
TAP	53	192	6
TAP	53	288	5
TAP	54	0	6
TAP	54	96	0
BRK	54	96	7
HLD	54	192	1	96
HLD	54	288	2	96
TAP	55	0	0
TAP	55	96	7
TAP	55	192	6
TAP	55	288	5
TAP	56	0	3
TAP	56	0	4
BRK	56	96	0
TAP	56	96	7
TAP	56	192	4
TAP	56	288	5
TAP	57	0	6
TAP	57	96	0
BRK	57	96	7
TAP	57	192	3
TAP	57	288	2
TAP	58	0	1
BRK	58	96	0
TAP	58	96	7
HLD	58	192	1	96
HLD	58	192	6	96
TAP	59	0	0
TAP	59	0	1
TAP	59	96	2
TAP	59	96	3
TAP	59	192	4
TAP	59	192	5
TAP	59	288	6
TAP	59	288	7
TAP	60	0	0
TAP	60	0	7
TAP	60	96	0
TAP	60	96	1
TAP	60	288	6
TAP	60	288	7
TAP	61	96	1
TAP	61	96	2
TAP	61	288	4
TAP	61	288	5
TAP	62	96	2
TAP	62	96	3
TAP	62	288	5
TAP	62	288	6
TAP	63	96	0
TAP	63	96	1
TAP	63	288	7
BRK	63	336	7

T_REC_TAP	160
T_REC_BRK	16
T_REC_XTP	0
T_REC_HLD	32
T_REC_XHO	0
T_REC_STR	10
T_REC_BST	0
T_REC_XST	0
T_REC_TTP	0
T_REC_THO	0
T_REC_SLD	10
T_REC_ALL	228
T_NUM_TAP	170
T_NUM_BRK	16
T_NUM_HLD	32
T_NUM_SLD	10
T_NUM_ALL	228
T_JUDGE_TAP	186
T_JUDGE_HLD	102
T_JUDGE_SLD	10
T_JUDGE_ALL	298
TTM_EACHPAIRS	45
TTM_SCR_TAP	85000
TTM_SCR_BRK	41600
TTM_SCR_HLD	32000
TTM_SCR_SLD	15000
TTM_SCR_ALL	173600
TTM_SCR_S	166850
TTM_SCR_SS	172000
TTM_RAT_ACV	10093

