VERSION	0.00.00	1.03.00
FES_MODE	0
BPM_DEF	123.000	123.000	123.000	123.000
MET_DEF	4	4
RESOLUTION	384
CLK_DEF	384
COMPATIBLE_CODE	MA2

BPM	0	0	123.000
MET	0	0	4	4

TAP	2	0	3
TAP	2	192	3
TAP	3	0	4
TAP	3	192	4
TAP	4	0	3
TAP	4	192	4
TAP	5	0	3
TAP	5	192	4
TAP	5	288	4
TAP	6	96	5
TAP	6	288	5
TAP	7	96	4
TAP	7	288	4
TAP	8	96	3
TAP	8	288	3
TAP	9	96	2
TAP	9	288	2
TAP	10	96	1
TAP	10	192	1
TAP	10	288	1
TAP	11	192	0
TAP	11	192	1
TAP	12	96	7
TAP	12	192	7
TAP	12	288	7
TAP	13	192	6
TAP	13	192	7
TAP	14	96	0
TAP	14	192	0
TAP	14	288	0
TAP	15	192	0
TAP	15	192	7
TAP	16	0	0
TAP	16	0	7
TAP	16	192	1
TAP	16	192	6
TAP	17	0	1
TAP	17	0	6
BRK	17	192	0
BRK	17	192	7
TAP	18	96	2
TAP	18	192	2
TAP	18	288	2
HLD	19	192	1	96
TAP	20	96	0
TAP	20	192	0
TAP	20	288	0
HLD	21	192	7	96
TAP	22	96	6
TAP	22	192	6
TAP	22	288	6
HLD	23	192	5	96
TAP	24	0	5
TAP	24	192	5
TAP	25	0	5
TAP	25	0	6
BRK	25	192	5
BRK	25	192	6
TAP	26	0	3
TAP	26	96	3
TAP	26	192	3
TAP	27	0	4
TAP	27	96	4
TAP	27	192	4
TAP	28	0	3
TAP	28	96	3
TAP	28	192	3
HLD	29	0	4	96
HLD	29	192	3	96
TAP	30	0	2
TAP	30	96	2
TAP	30	192	2
TAP	31	0	5
TAP	31	96	5
TAP	31	192	5
TAP	32	0	6
TAP	32	192	6
TAP	33	0	1
TAP	33	96	1
TAP	33	192	1
BRK	33	288	1
TAP	34	96	3
TAP	34	288	4
TAP	35	96	3
TAP	35	192	3
TAP	35	288	4
TAP	36	0	4
TAP	36	192	6
TAP	36	288	6
TAP	37	0	6
TAP	37	192	1
TAP	37	288	1
TAP	38	0	1
TAP	38	192	0
TAP	38	288	0
TAP	39	0	7
TAP	39	96	7
TAP	39	192	0
TAP	39	288	0
TAP	40	0	7
TAP	40	192	6
TAP	40	288	6
TAP	41	0	6
TAP	41	192	1
TAP	41	288	1
TAP	42	0	1
TAP	42	192	1
TAP	42	288	1
TAP	43	0	0
TAP	43	96	0
TAP	43	192	7
TAP	43	288	7
TAP	44	0	6
TAP	45	0	5
TAP	46	0	4
TAP	47	0	3
STR	48	0	2
SI_	48	0	2	96	96	7
STR	49	0	0
SI_	49	0	0	96	96	5
STR	50	0	5
SI_	50	0	5	96	96	2
BRK	52	0	1
TAP	52	192	0
TAP	52	288	0
TAP	53	0	1
TAP	53	192	7
TAP	53	288	7
TAP	54	0	6
TAP	54	192	1
TAP	54	288	0
TAP	55	0	7
TAP	55	192	6
TAP	55	288	7
TAP	56	0	0
TAP	56	192	5
TAP	56	288	5
TAP	57	0	4
TAP	57	192	2
TAP	57	288	2
TAP	58	0	3
TAP	58	192	2
TAP	58	192	5
TAP	59	0	2
TAP	59	0	5
TAP	59	192	1
TAP	59	192	6
TAP	60	0	1
TAP	60	0	6
TAP	60	288	0
TAP	60	288	7
TAP	61	96	7
TAP	61	192	0
TAP	61	288	0
TAP	62	96	0
TAP	62	96	7
TAP	62	288	0
TAP	62	288	7
TAP	63	96	0
TAP	63	192	7
BRK	63	288	7

T_REC_TAP	143
T_REC_BRK	7
T_REC_XTP	0
T_REC_HLD	5
T_REC_XHO	0
T_REC_STR	3
T_REC_BST	0
T_REC_XST	0
T_REC_TTP	0
T_REC_THO	0
T_REC_SLD	3
T_REC_ALL	161
T_NUM_TAP	146
T_NUM_BRK	7
T_NUM_HLD	5
T_NUM_SLD	3
T_NUM_ALL	161
T_JUDGE_TAP	153
T_JUDGE_HLD	10
T_JUDGE_SLD	3
T_JUDGE_ALL	166
TTM_EACHPAIRS	16
TTM_SCR_TAP	73000
TTM_SCR_BRK	18200
TTM_SCR_HLD	5000
TTM_SCR_SLD	4500
TTM_SCR_ALL	100700
TTM_SCR_S	97000
TTM_SCR_SS	100000
TTM_RAT_ACV	10070

