VERSION	0.00.00	1.03.00
FES_MODE	0
BPM_DEF	140.000	140.000	140.000	140.000
MET_DEF	4	4
RESOLUTION	384
CLK_DEF	384
COMPATIBLE_CODE	MA2

BPM	0	0	140.000
MET	0	0	4	4

TAP	1	0	1
TAP	1	0	2
TAP	1	96	5
TAP	1	96	6
TAP	1	192	1
TAP	1	192	2
TAP	1	288	5
TAP	1	288	6
STR	2	0	0
SI_	2	0	0	96	96	3
STR	2	0	4
SI_	2	0	4	96	96	7
TAP	3	0	0
TAP	3	0	1
TAP	3	96	6
TAP	3	96	7
TAP	3	192	4
TAP	3	192	5
TAP	3	288	2
TAP	3	288	3
TAP	4	0	1
TAP	4	0	6
STR	5	0	3
SI_	5	0	3	96	48	0
STR	5	0	4
SI_	5	0	4	96	48	7
STR	5	192	0
SCR	5	192	0	96	48	3
STR	5	192	7
SCL	5	192	7	96	48	4
STR	6	0	3
SI_	6	0	3	96	48	0
STR	6	0	4
SI_	6	0	4	96	48	7
STR	6	192	0
SCR	6	192	0	96	48	3
STR	6	192	7
SCL	6	192	7	96	48	4
TAP	7	0	4
TAP	7	0	6
TAP	7	48	4
TAP	7	48	6
TAP	7	96	4
TAP	7	96	5
TAP	7	192	3
TAP	7	192	4
TAP	7	240	3
TAP	7	240	4
STR	7	288	2
SI_	7	288	2	96	192	5
TAP	7	288	3
TAP	8	96	0
TAP	8	192	7
BRK	8	288	6
BRK	8	288	7
TAP	9	0	0
TAP	9	0	7
TAP	9	96	5
TAP	9	96	7
TAP	9	192	0
TAP	9	192	7
TAP	9	288	0
TAP	9	288	2
TAP	10	0	0
TAP	10	0	7
TAP	10	96	3
TAP	10	96	4
TAP	10	192	0
TAP	10	192	7
STR	10	288	1
SCL	10	288	1	96	192	6
STR	10	288	6
SCL	10	288	6	96	192	3
STR	11	288	3
SI_	11	288	3	96	288	0
TAP	12	0	6
TAP	12	96	5
TAP	12	192	4
TAP	12	288	3
TAP	16	192	3
TAP	16	192	4
TAP	16	288	0
TAP	16	288	7
STR	17	0	1
SI_	17	0	1	96	48	6
TAP	17	48	1
STR	17	192	5
SI_	17	192	5	96	48	2
TAP	17	240	5
STR	18	0	6
SI_	18	0	6	96	48	1
TAP	18	48	6
STR	18	192	2
SI_	18	192	2	96	48	5
TAP	18	240	2
STR	19	0	5
SI_	19	0	5	96	48	1
TAP	19	48	5
STR	19	192	3
SI_	19	192	3	96	48	6
TAP	19	240	3
STR	20	48	7
SI_	20	48	7	96	48	2
STR	20	96	3
SI_	20	96	3	96	48	6
STR	21	0	5
SCL	21	0	5	96	48	2
STR	21	192	1
SCL	21	192	1	96	48	6
STR	22	0	4
SCL	22	0	4	96	48	1
STR	22	192	0
SCL	22	192	0	96	48	5
TAP	23	0	6
TAP	23	48	7
TAP	23	96	0
TAP	23	144	1
TAP	23	192	1
TAP	23	240	0
TAP	23	288	7
TAP	23	336	6
STR	24	0	0
SCL	24	0	0	96	96	5
STR	24	96	5
SCL	24	96	5	96	96	2
STR	24	192	2
SCL	24	192	2	96	96	7
STR	24	288	7
SCL	24	288	7	96	96	4
STR	25	0	4
SCL	25	0	4	96	96	1
TAP	25	240	3
TAP	25	336	1
TAP	25	336	6
BRK	26	0	0
BRK	26	0	7
STR	26	192	3
SI_	26	192	3	96	48	0
STR	26	192	4
SI_	26	192	4	96	48	7
STR	27	0	0
SCR	27	0	0	96	48	3
STR	27	0	7
SCL	27	0	7	96	48	4
STR	27	192	3
SI_	27	192	3	96	48	0
STR	27	192	4
SI_	27	192	4	96	48	7
STR	28	0	0
SCR	28	0	0	96	48	3
STR	28	0	7
SCL	28	0	7	96	48	4
TAP	28	192	4
TAP	28	192	6
TAP	28	240	4
TAP	28	240	6
TAP	28	288	4
TAP	28	288	5
TAP	29	0	3
TAP	29	0	4
TAP	29	48	3
TAP	29	48	4
STR	29	96	2
SI_	29	96	2	96	192	5
TAP	29	96	3
TAP	29	288	0
TAP	30	0	7
BRK	30	96	6
BRK	30	96	7
TAP	30	192	0
TAP	30	192	7
TAP	30	288	5
TAP	30	288	7
TAP	31	0	0
TAP	31	0	7
TAP	31	96	0
TAP	31	96	2
TAP	31	192	0
TAP	31	192	7
TAP	31	288	3
TAP	31	288	4
TAP	32	0	0
TAP	32	0	7
STR	32	96	1
SCL	32	96	1	96	192	6
STR	32	96	6
SCL	32	96	6	96	192	3
STR	33	96	3
SI_	33	96	3	96	288	0
TAP	33	192	6
TAP	33	288	5
TAP	34	0	4
TAP	34	96	3
STR	34	192	3
SI_	34	192	3	96	48	0
STR	34	192	4
SI_	34	192	4	96	48	7
STR	35	0	0
SCR	35	0	0	96	48	3
STR	35	0	7
SCL	35	0	7	96	48	4
STR	35	192	3
SI_	35	192	3	96	48	0
STR	35	192	4
SI_	35	192	4	96	48	7
STR	36	0	0
SCR	36	0	0	96	48	3
STR	36	0	7
SCL	36	0	7	96	48	4
TAP	36	192	4
TAP	36	192	6
TAP	36	240	4
TAP	36	240	6
TAP	36	288	4
TAP	36	288	5
TAP	37	0	3
TAP	37	0	4
TAP	37	48	3
TAP	37	48	4
STR	37	96	2
SI_	37	96	2	96	192	5
TAP	37	96	3
TAP	37	288	0
TAP	38	0	7
BRK	38	96	6
BRK	38	96	7
TAP	38	192	0
TAP	38	192	7
TAP	38	288	5
TAP	38	288	7
TAP	39	0	0
TAP	39	0	7
TAP	39	96	0
TAP	39	96	2
TAP	39	192	0
TAP	39	192	7
TAP	39	288	3
TAP	39	288	4
BRK	40	0	0
BRK	40	0	7
STR	40	96	1
SCL	40	96	1	96	192	6
STR	40	96	6
SCL	40	96	6	96	192	3
STR	41	96	4
SI_	41	96	4	96	288	7
TAP	41	192	1
TAP	41	288	2
TAP	42	0	3
TAP	42	96	4
STR	42	192	7
SCL	42	192	7	96	48	4
STR	42	288	0
SCR	42	288	0	96	48	3
STR	43	0	6
SCL	43	0	6	96	48	3
STR	43	96	1
SCR	43	96	1	96	48	4
STR	43	192	7
SCL	43	192	7	96	48	4
STR	43	288	0
SCR	43	288	0	96	48	3
STR	44	0	6
SCL	44	0	6	96	144	3
STR	45	96	0
SCR	45	96	0	96	384	3
STR	45	96	7
SCL	45	96	7	96	384	4

T_REC_TAP	130
T_REC_BRK	10
T_REC_XTP	0
T_REC_HLD	0
T_REC_XHO	0
T_REC_STR	64
T_REC_BST	0
T_REC_XST	0
T_REC_TTP	0
T_REC_THO	0
T_REC_SLD	64
T_REC_ALL	268
T_NUM_TAP	194
T_NUM_BRK	10
T_NUM_HLD	0
T_NUM_SLD	64
T_NUM_ALL	268
T_JUDGE_TAP	204
T_JUDGE_HLD	0
T_JUDGE_SLD	64
T_JUDGE_ALL	268
TTM_EACHPAIRS	72
TTM_SCR_TAP	97000
TTM_SCR_BRK	26000
TTM_SCR_HLD	0
TTM_SCR_SLD	96000
TTM_SCR_ALL	219000
TTM_SCR_S	211500
TTM_SCR_SS	218000
TTM_RAT_ACV	10045

