VERSION	0.00.00	1.03.00
FES_MODE	0
BPM_DEF	140.000	140.000	140.000	140.000
MET_DEF	4	4
RESOLUTION	384
CLK_DEF	384
COMPATIBLE_CODE	MA2

BPM	0	0	140.000
MET	0	0	4	4

HLD	1	0	0	96
HLD	1	96	6	96
HLD	1	192	4	96
HLD	1	288	2	96
TAP	2	0	0
HLD	3	0	7	96
HLD	3	96	1	96
HLD	3	192	3	96
HLD	3	288	5	96
TAP	4	0	7
STR	5	0	3
SI_	5	0	3	96	48	0
STR	5	0	4
SI_	5	0	4	96	48	7
STR	5	192	0
SI_	5	192	0	96	48	3
STR	5	192	7
SI_	5	192	7	96	48	4
STR	6	0	3
SI_	6	0	3	96	48	0
STR	6	0	4
SI_	6	0	4	96	48	7
STR	6	192	0
SI_	6	192	0	96	48	3
STR	6	192	7
SI_	6	192	7	96	48	4
TAP	7	0	4
TAP	7	0	6
TAP	7	96	3
TAP	7	96	5
TAP	7	192	2
TAP	7	192	4
TAP	7	288	1
TAP	7	288	3
TAP	8	0	2
STR	8	48	2
SI_	8	48	2	96	96	5
TAP	8	96	2
BRK	8	288	6
HLD	9	0	1	96
TAP	9	96	7
HLD	9	192	6	96
TAP	9	288	0
HLD	10	0	1	96
TAP	10	96	7
TAP	10	192	0
TAP	10	192	7
STR	11	0	0
SUL	11	0	0	96	192	3
STR	11	0	7
SCL	11	0	7	96	192	4
STR	12	0	3
SI_	12	0	3	96	96	0
STR	12	0	4
SI_	12	0	4	96	96	7
HLD	17	0	4	96
HLD	17	0	7	96
STR	17	192	5
SI_	17	192	5	96	48	2
STR	17	192	6
SI_	17	192	6	96	48	1
HLD	18	0	0	192
HLD	18	0	3	192
STR	19	0	2
SI_	19	0	2	96	48	6
STR	19	192	5
SI_	19	192	5	96	48	1
BRK	20	48	7
TAP	20	96	6
BRK	20	144	7
TAP	20	192	6
TAP	21	0	3
HLD	21	0	5	96
HLD	21	96	6	96
HLD	21	192	7	96
HLD	21	288	0	288
HLD	22	0	1	192
STR	23	0	5
SI_	23	0	5	96	48	1
STR	23	192	4
SI_	23	192	4	96	48	0
TAP	24	48	7
TAP	24	96	6
TAP	24	144	5
STR	24	192	3
SCL	24	192	3	96	192	0
STR	24	192	4
SUL	24	192	4	96	192	7
TAP	25	240	3
TAP	25	240	7
BRK	26	0	0
TAP	26	0	4
STR	26	192	0
SI_	26	192	0	96	48	3
STR	26	192	7
SI_	26	192	7	96	48	4
STR	27	0	3
SI_	27	0	3	96	48	0
STR	27	0	4
SI_	27	0	4	96	48	7
STR	27	192	0
SI_	27	192	0	96	48	3
STR	27	192	7
SI_	27	192	7	96	48	4
STR	28	0	3
SI_	28	0	3	96	48	0
STR	28	0	4
SI_	28	0	4	96	48	7
TAP	28	192	4
TAP	28	192	6
TAP	28	288	3
TAP	28	288	5
TAP	29	0	2
TAP	29	0	4
TAP	29	96	1
TAP	29	96	3
TAP	29	192	2
STR	29	240	2
SI_	29	240	2	96	96	5
TAP	29	288	2
BRK	30	96	6
HLD	30	192	1	96
TAP	30	288	7
HLD	31	0	6	96
TAP	31	96	0
HLD	31	192	1	96
TAP	31	288	7
TAP	32	0	0
TAP	32	0	7
STR	32	192	0
SUL	32	192	0	96	192	3
STR	32	192	7
SCL	32	192	7	96	192	4
STR	33	192	3
SI_	33	192	3	96	96	0
STR	33	192	4
SI_	33	192	4	96	96	7
STR	34	192	0
SCR	34	192	0	96	48	3
STR	34	192	7
SCL	34	192	7	96	48	4
STR	35	0	3
SCL	35	0	3	96	48	0
STR	35	0	4
SCR	35	0	4	96	48	7
STR	35	192	0
SCR	35	192	0	96	48	3
STR	35	192	7
SCL	35	192	7	96	48	4
STR	36	0	3
SCL	36	0	3	96	48	0
STR	36	0	4
SCR	36	0	4	96	48	7
TAP	36	192	4
TAP	36	192	7
TAP	36	288	3
TAP	36	288	6
TAP	37	0	2
TAP	37	0	5
TAP	37	96	1
TAP	37	96	4
TAP	37	192	2
STR	37	240	2
SI_	37	240	2	96	96	5
TAP	37	288	2
BRK	38	96	6
HLD	38	192	1	96
TAP	38	288	7
HLD	39	0	6	96
TAP	39	96	0
HLD	39	192	1	96
TAP	39	288	7
TAP	40	0	0
TAP	40	0	7
STR	40	192	0
SUL	40	192	0	96	192	3
STR	40	192	7
SCL	40	192	7	96	192	4
STR	41	192	3
SI_	41	192	3	96	96	0
STR	41	192	4
SI_	41	192	4	96	96	7
HLD	42	192	0	96
HLD	42	288	6	96
HLD	43	0	4	96
HLD	43	96	2	96
HLD	43	192	3	96
HLD	43	288	5	96
HLD	44	0	7	96
HLD	44	96	1	96
STR	45	96	0
SCR	45	96	0	96	192	3
STR	45	96	7
SCL	45	96	7	96	192	4

T_REC_TAP	56
T_REC_BRK	6
T_REC_XTP	0
T_REC_HLD	34
T_REC_XHO	0
T_REC_STR	49
T_REC_BST	0
T_REC_XST	0
T_REC_TTP	0
T_REC_THO	0
T_REC_SLD	49
T_REC_ALL	194
T_NUM_TAP	105
T_NUM_BRK	6
T_NUM_HLD	34
T_NUM_SLD	49
T_NUM_ALL	194
T_JUDGE_TAP	111
T_JUDGE_HLD	78
T_JUDGE_SLD	49
T_JUDGE_ALL	238
TTM_EACHPAIRS	41
TTM_SCR_TAP	52500
TTM_SCR_BRK	15600
TTM_SCR_HLD	34000
TTM_SCR_SLD	73500
TTM_SCR_ALL	175600
TTM_SCR_S	169750
TTM_SCR_SS	175000
TTM_RAT_ACV	10034

