VERSION	0.00.00	1.03.00
FES_MODE	0
BPM_DEF	140.000	140.000	140.000	140.000
MET_DEF	4	4
RESOLUTION	384
CLK_DEF	384
COMPATIBLE_CODE	MA2

BPM	0	0	140.000
MET	0	0	4	4

TAP	1	0	0
TAP	1	96	7
TAP	1	192	0
TAP	1	288	7
TAP	2	0	0
TAP	3	0	6
TAP	3	96	1
TAP	3	192	6
TAP	3	288	1
TAP	4	0	6
TAP	5	0	1
TAP	5	0	6
TAP	5	192	3
TAP	5	192	4
TAP	6	0	1
TAP	6	0	6
TAP	6	192	3
TAP	6	192	4
STR	7	0	5
SCL	7	0	5	96	96	2
STR	8	0	2
SI_	8	0	2	96	96	5
BRK	8	288	6
HLD	9	0	0	96
TAP	9	96	1
HLD	9	192	7	96
TAP	9	288	6
HLD	10	0	7	288
HLD	10	96	0	192
TAP	11	0	6
TAP	11	96	5
TAP	11	192	4
TAP	11	288	3
STR	12	0	4
SI_	12	0	4	96	192	7
TAP	17	0	4
HLD	17	96	5	288
TAP	17	192	4
TAP	17	288	3
HLD	18	0	2	288
HLD	19	0	6	96
HLD	19	192	0	96
TAP	20	96	7
BRK	20	192	7
TAP	21	0	1
TAP	21	96	2
TAP	21	192	3
TAP	21	288	4
HLD	22	0	5	288
HLD	23	0	7	336
HLD	23	192	0	144
STR	24	96	5
SCL	24	96	5	96	288	2
TAP	25	240	1
BRK	26	0	0
BRK	26	0	7
TAP	26	192	1
TAP	26	192	6
TAP	27	0	3
TAP	27	0	4
TAP	27	192	1
TAP	27	192	6
TAP	28	0	3
TAP	28	0	4
STR	28	192	5
SCL	28	192	5	96	96	2
STR	29	192	2
SI_	29	192	2	96	96	5
BRK	30	96	6
HLD	30	192	0	96
TAP	30	288	1
HLD	31	0	7	96
TAP	31	96	6
HLD	31	192	7	288
HLD	31	288	0	192
TAP	32	192	6
TAP	32	288	5
TAP	33	0	4
TAP	33	96	3
STR	33	192	4
SI_	33	192	4	96	192	7
TAP	34	192	1
TAP	34	192	6
TAP	35	0	3
TAP	35	0	4
TAP	35	192	1
TAP	35	192	6
TAP	36	0	3
TAP	36	0	4
STR	36	192	5
SCL	36	192	5	96	96	2
STR	37	192	2
SI_	37	192	2	96	96	5
BRK	38	96	6
HLD	38	192	0	96
TAP	38	288	1
HLD	39	0	7	96
TAP	39	96	6
HLD	39	192	7	288
HLD	39	288	0	192
TAP	40	192	6
TAP	40	288	5
TAP	41	0	4
TAP	41	96	3
STR	41	192	4
SI_	41	192	4	96	192	7
TAP	42	192	0
TAP	42	192	7
TAP	42	288	0
TAP	42	288	7
TAP	43	0	1
TAP	43	0	6
TAP	43	96	1
TAP	43	96	6
TAP	43	192	2
TAP	43	192	5
TAP	43	288	2
TAP	43	288	5
TAP	44	0	3
TAP	44	0	4
TAP	44	96	3
TAP	44	96	4
STR	45	96	3
SI_	45	96	3	96	288	0
STR	45	96	4
SI_	45	96	4	96	288	7

T_REC_TAP	77
T_REC_BRK	6
T_REC_XTP	0
T_REC_HLD	19
T_REC_XHO	0
T_REC_STR	12
T_REC_BST	0
T_REC_XST	0
T_REC_TTP	0
T_REC_THO	0
T_REC_SLD	12
T_REC_ALL	126
T_NUM_TAP	89
T_NUM_BRK	6
T_NUM_HLD	19
T_NUM_SLD	12
T_NUM_ALL	126
T_JUDGE_TAP	95
T_JUDGE_HLD	74
T_JUDGE_SLD	12
T_JUDGE_ALL	181
TTM_EACHPAIRS	22
TTM_SCR_TAP	44500
TTM_SCR_BRK	15600
TTM_SCR_HLD	19000
TTM_SCR_SLD	18000
TTM_SCR_ALL	97100
TTM_SCR_S	93650
TTM_SCR_SS	96500
TTM_RAT_ACV	10062

