VERSION	0.00.00	1.03.00
FES_MODE	0
BPM_DEF	145.000	145.000	145.000	145.000
MET_DEF	4	4
RESOLUTION	384
CLK_DEF	384
COMPATIBLE_CODE	MA2

BPM	0	0	145.000
MET	0	0	4	4

HLD	1	0	1	384
TAP	1	192	2
HLD	2	0	5	192
TAP	2	192	1
TAP	2	288	1
TAP	2	288	7
TAP	2	336	1
TAP	2	336	7
HLD	3	0	5	96
HLD	3	96	4	96
HLD	3	192	3	96
TAP	3	288	2
STR	4	0	1
SI_	4	0	1	96	24	5
STR	4	0	2
SI_	4	0	2	96	24	5
STR	4	192	5
SI_	4	192	5	96	24	2
STR	4	192	6
SI_	4	192	6	96	24	2
STR	5	0	0
SCL	5	0	0	96	48	5
TAP	5	0	2
TAP	5	48	3
TAP	5	96	2
TAP	5	144	3
TAP	5	192	2
STR	5	192	5
SCR	5	192	5	96	48	0
TAP	5	240	3
TAP	5	288	2
TAP	5	336	3
TAP	6	0	5
STR	6	0	7
SCR	6	0	7	96	48	2
TAP	6	48	4
TAP	6	96	5
TAP	6	144	4
STR	6	192	2
SCL	6	192	2	96	48	7
TAP	6	192	5
TAP	6	240	4
TAP	6	288	5
TAP	6	336	4
TAP	6	360	4
TAP	7	0	3
TAP	7	48	2
TAP	7	96	1
TAP	7	144	0
TAP	7	192	7
TAP	7	240	6
TAP	7	288	5
TAP	7	336	4
TAP	7	360	3
BRK	8	0	1
BRK	8	0	6
BRK	8	96	1
BRK	8	96	6
HLD	9	0	0	288
TAP	9	96	1
TAP	9	192	2
HLD	9	288	2	288
TAP	10	0	3
TAP	10	96	3
HLD	10	192	4	96
TAP	10	288	3
TAP	11	72	7
TAP	11	96	0
HLD	11	192	6	96
HLD	11	288	5	96
HLD	12	0	2	96
HLD	12	96	1	96
BRK	12	192	0
BRK	12	288	0
TAP	13	72	3
TAP	13	96	4
TAP	13	192	2
TAP	13	240	1
TAP	13	288	0
TAP	13	336	7
TAP	14	0	6
TAP	14	48	5
TAP	14	96	6
TAP	14	144	7
TAP	14	192	0
TAP	14	240	1
TAP	14	288	2
TAP	14	336	2
TAP	15	48	5
TAP	15	96	6
TAP	15	144	7
STR	15	192	6
SCR	15	192	6	96	48	1
STR	15	240	1
SCR	15	240	1	96	48	4
TAP	16	48	2
TAP	16	96	1
TAP	16	144	0
STR	16	192	1
SCL	16	192	1	96	48	6
STR	16	240	6
SCL	16	240	6	96	48	3
TAP	17	0	0
TAP	17	48	2
TAP	17	72	3
TAP	17	96	4
TAP	17	144	5
TAP	17	168	4
TAP	17	192	3
TAP	17	240	2
TAP	17	264	3
TAP	17	288	4
TAP	17	336	5
TAP	17	360	4
TAP	18	0	3
TAP	18	48	1
TAP	18	72	2
TAP	18	96	3
TAP	18	144	6
TAP	18	168	5
TAP	18	192	4
TAP	18	240	3
TAP	18	264	4
TAP	18	288	3
TAP	18	336	4
TAP	19	0	1
TAP	19	0	2
STR	19	96	1
SI_	19	96	1	96	24	5
STR	19	96	2
SI_	19	96	2	96	24	5
HLD	20	0	5	96
HLD	20	96	4	96
HLD	20	192	3	96
HLD	20	288	2	96
HLD	21	0	6	96
HLD	21	96	7	96
HLD	21	192	0	96
TAP	21	288	1
BRK	21	336	0
BRK	21	336	1
HLD	22	0	7	96
HLD	22	96	6	96
HLD	22	192	5	96
HLD	22	288	4	96
HLD	23	0	3	96
HLD	23	96	2	96
HLD	23	192	1	96
STR	24	0	0
SI_	24	0	0	96	48	3
STR	24	0	4
SI_	24	0	4	96	48	7
STR	24	192	3
SI_	24	192	3	96	48	0
STR	24	192	7
SI_	24	192	7	96	48	4
STR	25	0	1
SI_	25	0	1	96	24	5
STR	25	0	2
SI_	25	0	2	96	24	5
STR	25	192	5
SI_	25	192	5	96	24	2
STR	25	192	6
SI_	25	192	6	96	24	2
STR	26	0	0
SI_	26	0	0	96	48	3
STR	26	0	7
SI_	26	0	7	96	48	4
STR	26	192	3
SI_	26	192	3	96	48	0
STR	26	192	4
SI_	26	192	4	96	48	7
STR	27	0	1
SI_	27	0	1	96	24	5
STR	27	0	2
SI_	27	0	2	96	24	5
BRK	27	192	0
BRK	27	288	0
TAP	28	48	3
TAP	28	96	4
TAP	28	192	5
TAP	28	240	4
TAP	28	288	3
TAP	28	336	2
TAP	29	0	3
TAP	29	48	4
TAP	29	96	5
TAP	29	144	6
TAP	29	192	7
TAP	29	240	0
TAP	29	288	6
TAP	29	336	1
TAP	30	48	1
TAP	30	48	5
TAP	30	96	2
TAP	30	96	6
STR	30	192	1
SI_	30	192	1	96	48	6
STR	30	240	5
SI_	30	240	5	96	48	2
TAP	31	48	0
TAP	31	48	7
TAP	31	96	3
TAP	31	96	4
STR	31	192	7
SCL	31	192	7	96	48	4
STR	31	240	3
SCL	31	240	3	96	48	0
TAP	32	0	7
TAP	32	48	5
TAP	32	72	4
TAP	32	96	3
TAP	32	144	2
TAP	32	168	3
TAP	32	192	4
TAP	32	240	5
TAP	32	264	4
TAP	32	288	3
TAP	32	336	2
TAP	32	360	3
TAP	33	0	4
TAP	33	48	6
TAP	33	72	5
TAP	33	96	4
TAP	33	144	1
TAP	33	168	2
TAP	33	192	3
TAP	33	240	4
TAP	33	264	3
TAP	33	288	4
TAP	33	336	3
TAP	34	0	5
TAP	34	0	6
STR	34	96	5
SI_	34	96	5	96	24	2
STR	34	96	6
SI_	34	96	6	96	24	2
STR	35	0	0
SI_	35	0	0	96	48	3
TAP	35	72	0
TAP	35	96	7
TAP	35	144	6
TAP	35	168	5
STR	35	192	4
SI_	35	192	4	96	48	7
TAP	35	264	4
TAP	35	288	3
TAP	35	336	2
TAP	35	360	1
STR	36	0	0
SCR	36	0	0	96	48	3
TAP	36	72	0
TAP	36	96	7
TAP	36	144	6
TAP	36	168	5
STR	36	192	4
SCR	36	192	4	96	48	7
BRK	36	288	0
HLD	37	0	7	96
TAP	37	72	6
HLD	37	96	6	96
TAP	37	144	5
TAP	37	168	5
HLD	37	192	5	96
TAP	37	264	4
HLD	37	288	4	96
TAP	37	336	3
TAP	37	360	3
HLD	38	0	3	96
TAP	38	72	2
HLD	38	96	2	96
TAP	38	144	1
TAP	38	168	1
BRK	38	192	0
BRK	38	288	0
TAP	39	0	0
HLD	39	0	6	288
TAP	39	48	0
TAP	39	96	2
TAP	39	120	2
TAP	39	168	4
TAP	39	192	4
HLD	40	0	1	288
TAP	40	0	7
TAP	40	48	7
TAP	40	96	5
TAP	40	120	5
TAP	40	168	3
TAP	40	192	3
BRK	40	288	0
TAP	41	48	0
TAP	41	96	1
TAP	41	168	2
TAP	41	192	3
TAP	41	264	3
TAP	41	288	4
TAP	41	336	5
TAP	42	0	6
TAP	42	72	7
TAP	42	96	0
BRK	42	192	0
BRK	42	288	0
TAP	43	48	3
TAP	43	96	4
TAP	43	192	2
TAP	43	240	1
TAP	43	288	0
TAP	43	336	7
TAP	44	0	6
TAP	44	48	5
TAP	44	96	6
TAP	44	144	7
TAP	44	192	0
TAP	44	240	1
TAP	44	288	2
TAP	44	336	2
TAP	45	48	5
TAP	45	96	6
TAP	45	144	7
STR	45	192	6
SCR	45	192	6	96	48	1
STR	45	240	1
SCR	45	240	1	96	48	4
TAP	46	48	2
TAP	46	96	1
TAP	46	144	0
STR	46	192	1
SCL	46	192	1	96	48	6
STR	46	240	6
SCL	46	240	6	96	48	3
TAP	47	0	0
TAP	47	48	2
TAP	47	72	3
TAP	47	96	4
TAP	47	144	5
TAP	47	168	4
TAP	47	192	3
TAP	47	240	2
TAP	47	264	3
TAP	47	288	4
TAP	47	336	5
TAP	47	360	4
TAP	48	0	3
TAP	48	48	1
TAP	48	72	2
TAP	48	96	3
TAP	48	144	6
TAP	48	168	5
TAP	48	192	4
TAP	48	240	3
TAP	48	264	4
TAP	48	288	3
BRK	48	336	3
BRK	48	336	4
TAP	49	0	7
TAP	49	48	5
TAP	49	72	4
TAP	49	96	3
TAP	49	144	2
TAP	49	168	3
TAP	49	192	4
TAP	49	240	5
TAP	49	264	4
TAP	49	288	3
TAP	49	336	2
TAP	49	360	3
TAP	50	0	4
TAP	50	48	6
TAP	50	72	5
TAP	50	96	4
TAP	50	144	1
TAP	50	168	2
TAP	50	192	3
TAP	50	240	4
TAP	50	264	3
TAP	50	288	4
BRK	50	336	3
BRK	50	336	4
TAP	51	0	1
TAP	51	48	2
TAP	51	72	2
TAP	51	96	3
TAP	51	144	3
TAP	51	168	3
TAP	51	192	4
TAP	51	240	4
TAP	51	264	4
TAP	51	288	5
TAP	51	336	5
TAP	51	360	5
TAP	52	0	4
TAP	52	48	4
TAP	52	72	4
TAP	52	96	3
TAP	52	144	3
TAP	52	168	3
TAP	52	192	2
TAP	52	240	3
TAP	52	264	4
TAP	52	288	3
TAP	52	336	1
TAP	52	336	6
TAP	53	0	5
TAP	53	0	6
STR	53	96	5
SI_	53	96	5	96	24	2
STR	53	96	6
SI_	53	96	6	96	24	2
TAP	54	0	1
TAP	54	0	2
STR	54	96	1
SI_	54	96	1	96	576	5
STR	54	96	2
SI_	54	96	2	96	576	5

T_REC_TAP	268
T_REC_BRK	20
T_REC_XTP	0
T_REC_HLD	34
T_REC_XHO	0
T_REC_STR	46
T_REC_BST	0
T_REC_XST	0
T_REC_TTP	0
T_REC_THO	0
T_REC_SLD	46
T_REC_ALL	414
T_NUM_TAP	314
T_NUM_BRK	20
T_NUM_HLD	34
T_NUM_SLD	46
T_NUM_ALL	414
T_JUDGE_TAP	334
T_JUDGE_HLD	92
T_JUDGE_SLD	46
T_JUDGE_ALL	472
TTM_EACHPAIRS	35
TTM_SCR_TAP	157000
TTM_SCR_BRK	52000
TTM_SCR_HLD	34000
TTM_SCR_SLD	69000
TTM_SCR_ALL	312000
TTM_SCR_S	300700
TTM_SCR_SS	310000
TTM_RAT_ACV	10064

