VERSION	0.00.00	1.03.00
FES_MODE	0
BPM_DEF	145.000	145.000	145.000	145.000
MET_DEF	4	4
RESOLUTION	384
CLK_DEF	384
COMPATIBLE_CODE	MA2

BPM	0	0	145.000
MET	0	0	4	4

HLD	2	192	4	96
TAP	2	288	2
TAP	2	336	2
TAP	4	0	1
STR	4	0	2
SI_	4	0	2	96	48	6
STR	4	192	5
SI_	4	192	5	96	48	1
TAP	4	192	6
TAP	5	96	4
TAP	5	96	5
TAP	5	144	3
TAP	5	192	2
TAP	5	288	2
TAP	5	288	3
TAP	5	336	4
TAP	6	0	5
TAP	6	96	5
TAP	6	96	6
TAP	6	144	4
TAP	6	192	2
TAP	6	192	3
TAP	6	288	1
TAP	6	288	2
TAP	6	336	3
TAP	7	0	4
TAP	7	0	5
TAP	7	96	5
TAP	7	96	6
TAP	7	144	3
TAP	7	144	4
HLD	7	192	1	192
TAP	7	192	2
BRK	8	0	0
BRK	8	96	0
HLD	9	0	6	240
TAP	9	240	7
TAP	9	288	0
TAP	9	336	1
HLD	10	0	1	96
TAP	10	96	0
TAP	10	144	7
HLD	10	192	6	96
TAP	10	288	7
TAP	10	336	0
TAP	11	72	0
HLD	11	96	0	96
HLD	11	192	1	96
TAP	11	288	2
TAP	12	0	2
TAP	12	0	3
TAP	12	96	2
TAP	12	96	3
BRK	12	192	0
BRK	12	288	0
TAP	13	48	7
TAP	13	96	6
TAP	13	96	7
TAP	13	144	6
TAP	13	192	5
TAP	13	240	4
TAP	13	288	3
TAP	13	288	4
TAP	13	336	3
TAP	14	0	2
TAP	14	48	1
TAP	14	96	0
TAP	14	96	1
TAP	14	144	0
TAP	14	192	7
TAP	14	240	6
TAP	14	288	5
TAP	14	288	6
TAP	14	336	5
TAP	15	48	0
TAP	15	96	0
TAP	15	96	1
TAP	15	144	1
TAP	15	192	2
TAP	15	240	3
TAP	15	288	3
TAP	15	288	4
TAP	15	336	4
TAP	16	48	7
TAP	16	96	6
TAP	16	96	7
TAP	16	144	6
TAP	16	192	5
TAP	16	240	4
TAP	16	288	3
TAP	16	288	4
TAP	16	336	3
HLD	17	0	0	96
HLD	17	96	1	96
HLD	17	192	2	96
HLD	17	288	3	96
HLD	18	0	5	96
HLD	18	96	7	96
HLD	18	192	0	96
STR	18	288	1
SCR	18	288	1	96	48	4
STR	19	96	5
SI_	19	96	5	96	48	0
TAP	20	0	0
HLD	20	0	7	96
HLD	20	96	6	96
HLD	20	192	4	96
HLD	20	288	5	96
HLD	21	0	3	96
HLD	21	96	4	96
STR	21	192	3
SI_	21	192	3	96	48	7
HLD	22	0	0	96
TAP	22	0	7
HLD	22	96	2	96
HLD	22	192	1	96
HLD	22	288	3	96
HLD	23	0	5	96
HLD	23	96	4	96
HLD	23	192	6	96
BRK	23	288	7
TAP	24	0	1
STR	24	0	2
SI_	24	0	2	96	48	7
STR	24	192	5
SI_	24	192	5	96	48	0
TAP	24	192	6
TAP	25	0	1
STR	25	0	2
SI_	25	0	2	96	48	7
STR	25	192	5
SI_	25	192	5	96	48	0
TAP	25	192	6
TAP	26	0	2
STR	26	0	3
SI_	26	0	3	96	48	7
STR	26	192	4
SI_	26	192	4	96	48	0
TAP	26	192	5
TAP	27	0	2
STR	27	0	3
SI_	27	0	3	96	48	7
BRK	27	192	0
BRK	27	288	0
TAP	28	48	7
TAP	28	96	6
TAP	28	96	7
TAP	28	144	5
TAP	28	192	4
TAP	28	240	3
TAP	28	288	2
TAP	28	288	3
TAP	28	336	1
TAP	29	0	0
TAP	29	48	7
TAP	29	96	6
TAP	29	96	7
TAP	29	144	5
TAP	29	192	4
TAP	29	240	3
TAP	29	288	2
TAP	29	288	3
TAP	29	336	1
TAP	30	48	0
TAP	30	96	0
TAP	30	96	1
TAP	30	144	2
TAP	30	192	3
TAP	30	240	4
TAP	30	288	4
TAP	30	288	5
TAP	30	336	6
TAP	31	48	7
TAP	31	96	6
TAP	31	96	7
TAP	31	144	5
TAP	31	192	4
TAP	31	240	3
TAP	31	288	2
TAP	31	288	3
TAP	31	336	1
STR	32	0	2
SCL	32	0	2	96	48	7
STR	32	192	5
SCR	32	192	5	96	48	0
STR	33	0	2
SCL	33	0	2	96	48	7
STR	33	192	5
SCR	33	192	5	96	48	0
TAP	34	0	2
TAP	34	0	3
TAP	34	96	5
TAP	34	96	6
BRK	34	192	0
BRK	34	192	1
STR	35	0	2
SI_	35	0	2	96	48	6
TAP	35	72	2
TAP	35	144	4
STR	35	192	5
SI_	35	192	5	96	48	1
TAP	35	264	5
TAP	35	336	3
STR	36	0	2
SI_	36	0	2	96	48	6
TAP	36	72	2
TAP	36	144	4
STR	36	192	5
SI_	36	192	5	96	48	1
TAP	36	264	5
TAP	36	336	2
STR	37	0	3
SI_	37	0	3	96	48	6
TAP	37	72	3
TAP	37	144	5
STR	37	192	4
SI_	37	192	4	96	48	1
TAP	37	264	4
TAP	37	336	2
STR	38	0	3
SI_	38	0	3	96	48	6
TAP	38	72	3
TAP	38	144	7
BRK	38	192	0
BRK	38	288	0
TAP	39	0	6
TAP	39	48	6
TAP	39	96	7
TAP	39	120	0
TAP	39	168	0
HLD	39	192	1	96
TAP	40	0	1
TAP	40	48	1
TAP	40	96	0
TAP	40	120	7
TAP	40	168	7
TAP	40	192	6
BRK	40	288	0
TAP	41	0	5
TAP	41	48	5
TAP	41	96	0
TAP	41	120	1
TAP	41	168	1
HLD	41	192	2	96
TAP	42	0	2
TAP	42	48	2
TAP	42	96	7
TAP	42	120	6
TAP	42	168	6
TAP	42	192	5
BRK	42	288	0
HLD	43	0	1	240
TAP	43	240	2
TAP	43	288	2
HLD	43	312	3	72
HLD	44	0	5	192
HLD	44	192	7	192
HLD	45	0	6	240
TAP	45	240	5
TAP	45	288	5
HLD	45	312	4	72
HLD	46	0	2	192
HLD	46	192	0	96
BRK	46	288	7
TAP	47	0	1
STR	47	0	2
SI_	47	0	2	96	48	7
STR	47	192	5
SI_	47	192	5	96	48	0
TAP	47	192	6
TAP	48	0	1
STR	48	0	2
SI_	48	0	2	96	48	7
STR	48	192	5
SI_	48	192	5	96	48	0
TAP	48	192	6
STR	49	0	1
SI_	49	0	1	96	48	5
STR	49	96	7
SI_	49	96	7	96	48	3
STR	49	192	0
SI_	49	192	0	96	48	4
STR	49	288	6
SI_	49	288	6	96	48	2
STR	50	0	7
SI_	50	0	7	96	48	3
STR	50	96	5
SI_	50	96	5	96	48	1
STR	50	192	6
SI_	50	192	6	96	48	2
HLD	51	0	1	96
STR	51	0	2
SCR	51	0	2	96	48	5
STR	51	192	5
SCL	51	192	5	96	48	2
HLD	51	192	6	96
HLD	52	0	0	96
STR	52	0	1
SCR	52	0	1	96	48	4
STR	52	192	6
SCL	52	192	6	96	48	3
HLD	52	192	7	96
TAP	53	0	1
TAP	53	96	1
HLD	53	192	1	96
HLD	54	0	6	288
STR	54	96	4
SCL	54	96	4	96	96	1
BRK	55	0	1
BRK	55	0	6
BRK	55	96	0
BRK	55	96	4
BRK	55	192	2
BRK	55	192	6

T_REC_TAP	173
T_REC_BRK	20
T_REC_XTP	0
T_REC_HLD	43
T_REC_XHO	0
T_REC_STR	39
T_REC_BST	0
T_REC_XST	0
T_REC_TTP	0
T_REC_THO	0
T_REC_SLD	39
T_REC_ALL	314
T_NUM_TAP	212
T_NUM_BRK	20
T_NUM_HLD	43
T_NUM_SLD	39
T_NUM_ALL	314
T_JUDGE_TAP	232
T_JUDGE_HLD	107
T_JUDGE_SLD	39
T_JUDGE_ALL	378
TTM_EACHPAIRS	52
TTM_SCR_TAP	106000
TTM_SCR_BRK	52000
TTM_SCR_HLD	43000
TTM_SCR_SLD	58500
TTM_SCR_ALL	259500
TTM_SCR_S	249800
TTM_SCR_SS	257500
TTM_RAT_ACV	10077

