VERSION	0.00.00	1.03.00
FES_MODE	0
BPM_DEF	145.000	145.000	145.000	145.000
MET_DEF	4	4
RESOLUTION	384
CLK_DEF	384
COMPATIBLE_CODE	MA2

BPM	0	0	145.000
MET	0	0	4	4

TAP	3	0	2
TAP	3	192	3
TAP	4	0	4
TAP	4	192	5
TAP	5	0	6
TAP	5	48	7
TAP	5	96	6
TAP	5	192	5
TAP	5	240	4
TAP	5	288	5
TAP	6	0	6
TAP	6	48	7
TAP	6	96	6
TAP	6	192	0
TAP	6	240	1
TAP	6	288	0
TAP	7	0	2
TAP	7	48	3
TAP	7	96	2
TAP	7	192	0
TAP	7	240	1
TAP	7	288	0
BRK	8	0	0
BRK	8	0	7
BRK	8	96	0
BRK	8	96	7
STR	9	0	5
SI_	9	0	5	96	96	1
TAP	10	0	1
TAP	10	96	1
TAP	10	192	2
TAP	10	288	2
HLD	11	0	1	96
TAP	11	192	0
TAP	11	288	7
TAP	12	0	6
TAP	12	0	7
TAP	12	96	5
TAP	12	96	6
BRK	12	192	0
BRK	12	192	7
BRK	12	288	0
BRK	12	288	7
TAP	13	0	1
TAP	13	48	1
TAP	13	96	1
TAP	13	192	2
TAP	13	240	2
TAP	13	288	2
TAP	14	0	1
TAP	14	48	6
TAP	14	96	4
TAP	14	192	4
TAP	14	240	2
TAP	14	288	5
TAP	15	0	4
TAP	15	48	4
TAP	15	96	4
TAP	15	192	1
TAP	15	240	1
TAP	15	288	1
TAP	16	0	7
TAP	16	48	3
TAP	16	96	5
TAP	16	192	5
TAP	16	240	1
TAP	16	288	3
TAP	16	336	4
STR	17	0	5
SI_	17	0	5	96	96	0
STR	18	0	2
SI_	18	0	2	96	96	7
TAP	19	0	6
TAP	19	0	7
TAP	19	96	6
TAP	19	96	7
TAP	19	192	6
TAP	19	192	7
TAP	20	0	0
TAP	20	96	0
TAP	20	192	1
TAP	20	288	1
TAP	21	0	0
TAP	21	96	7
HLD	21	192	6	96
TAP	22	0	7
TAP	22	96	7
TAP	22	192	0
TAP	22	288	0
HLD	23	0	7	96
HLD	23	96	6	96
HLD	23	192	5	192
STR	24	0	4
SI_	24	0	4	96	192	1
HLD	25	0	1	384
TAP	26	0	2
TAP	26	192	3
TAP	27	0	1
TAP	27	0	2
TAP	27	96	0
TAP	27	96	1
BRK	27	192	0
BRK	27	192	7
BRK	27	288	0
BRK	27	288	7
TAP	28	0	6
TAP	28	48	5
TAP	28	96	6
TAP	28	192	0
TAP	28	240	1
TAP	28	288	0
TAP	29	0	0
TAP	29	48	7
TAP	29	96	0
TAP	29	192	7
TAP	29	240	6
TAP	29	288	7
BRK	30	0	0
TAP	30	192	1
TAP	30	240	2
TAP	30	288	3
TAP	31	0	1
TAP	31	48	0
TAP	31	96	7
TAP	31	192	6
TAP	31	240	5
TAP	31	288	6
TAP	32	0	0
TAP	32	0	7
TAP	32	96	1
TAP	32	192	0
TAP	32	192	7
TAP	32	288	6
TAP	33	0	0
TAP	33	0	7
TAP	33	96	1
TAP	33	192	0
TAP	33	192	1
TAP	33	288	7
TAP	34	0	6
TAP	34	0	7
TAP	34	96	0
TAP	34	96	7
TAP	34	192	1
TAP	34	192	6
HLD	35	0	5	96
HLD	35	192	4	96
HLD	36	0	5	96
HLD	36	192	4	96
HLD	37	0	5	96
HLD	37	192	6	96
HLD	38	0	7	96
BRK	38	192	0
BRK	38	288	0
STR	39	0	2
SCL	39	0	2	96	192	7
HLD	41	0	7	288
TAP	42	0	7
TAP	42	96	7
TAP	42	192	0
BRK	42	288	0
HLD	43	0	1	384
HLD	44	0	2	384
HLD	45	0	3	384
HLD	46	0	4	192
HLD	46	192	5	192
TAP	47	0	6
TAP	47	96	7
TAP	47	192	0
TAP	47	288	1
TAP	48	0	2
TAP	48	96	3
TAP	48	192	4
TAP	48	192	5
TAP	48	288	5
TAP	48	288	6
TAP	49	0	4
TAP	49	96	3
TAP	49	192	2
TAP	49	288	1
TAP	50	0	0
TAP	50	96	7
TAP	50	192	5
TAP	50	192	6
TAP	50	288	4
TAP	50	288	5
HLD	51	0	6	192
HLD	51	192	7	192
HLD	52	0	0	192
HLD	52	192	1	96
TAP	53	0	0
TAP	53	0	1
TAP	53	96	0
TAP	53	96	7
TAP	53	192	6
TAP	53	192	7
TAP	54	0	1
STR	54	96	2
SI_	54	96	2	96	96	7
TAP	55	0	6
TAP	55	0	7
TAP	55	96	5
TAP	55	96	6
TAP	55	192	6
TAP	55	192	7

T_REC_TAP	154
T_REC_BRK	16
T_REC_XTP	0
T_REC_HLD	23
T_REC_XHO	0
T_REC_STR	6
T_REC_BST	0
T_REC_XST	0
T_REC_TTP	0
T_REC_THO	0
T_REC_SLD	6
T_REC_ALL	205
T_NUM_TAP	160
T_NUM_BRK	16
T_NUM_HLD	23
T_NUM_SLD	6
T_NUM_ALL	205
T_JUDGE_TAP	176
T_JUDGE_HLD	86
T_JUDGE_SLD	6
T_JUDGE_ALL	268
TTM_EACHPAIRS	30
TTM_SCR_TAP	80000
TTM_SCR_BRK	41600
TTM_SCR_HLD	23000
TTM_SCR_SLD	9000
TTM_SCR_ALL	153600
TTM_SCR_S	147450
TTM_SCR_SS	152000
TTM_RAT_ACV	10105

