VERSION	0.00.00	1.03.00
FES_MODE	0
BPM_DEF	145.000	145.000	145.000	145.000
MET_DEF	4	4
RESOLUTION	384
CLK_DEF	384
COMPATIBLE_CODE	MA2

BPM	0	0	145.000
MET	0	0	4	4

TAP	3	0	0
TAP	3	192	0
TAP	4	0	7
TAP	4	96	7
BRK	4	192	7
TAP	5	96	1
TAP	5	288	1
TAP	6	96	2
TAP	6	288	2
TAP	7	96	1
TAP	7	288	1
TAP	8	0	0
TAP	8	0	7
TAP	8	96	0
TAP	8	96	7
HLD	9	0	7	288
TAP	10	0	7
TAP	10	96	7
TAP	10	192	6
TAP	10	288	6
TAP	11	96	7
TAP	11	192	7
TAP	11	288	0
TAP	12	0	0
TAP	12	0	1
TAP	12	96	1
TAP	12	96	2
BRK	12	192	7
BRK	12	288	7
TAP	13	96	6
TAP	13	288	6
TAP	14	96	5
TAP	14	288	5
TAP	15	96	6
TAP	15	288	6
TAP	16	96	7
TAP	16	192	0
STR	16	288	1
SI_	16	288	1	96	96	6
STR	17	288	5
SI_	17	288	5	96	96	2
TAP	19	0	0
TAP	19	0	1
TAP	19	96	0
TAP	19	96	7
TAP	19	192	0
TAP	19	192	7
HLD	20	0	6	288
HLD	21	0	5	288
HLD	22	0	4	288
TAP	23	0	3
TAP	23	96	3
TAP	23	192	4
TAP	23	288	4
STR	24	0	5
SI_	24	0	5	96	96	0
HLD	25	0	0	288
TAP	26	0	1
TAP	26	0	2
TAP	26	192	2
TAP	26	192	3
TAP	27	0	0
TAP	27	0	1
TAP	27	96	0
TAP	27	96	1
BRK	27	192	7
BRK	27	288	7
TAP	28	96	6
TAP	28	288	6
TAP	29	96	5
TAP	29	288	5
TAP	30	96	6
TAP	30	288	6
TAP	31	96	7
TAP	31	192	0
TAP	31	288	1
STR	32	0	2
SI_	32	0	2	96	96	5
STR	33	0	6
SI_	33	0	6	96	96	1
TAP	34	0	0
TAP	34	0	1
TAP	34	96	0
TAP	34	96	7
TAP	34	192	0
TAP	34	192	7
TAP	35	0	6
TAP	35	192	6
TAP	36	0	4
TAP	36	192	4
TAP	37	0	2
TAP	37	192	2
TAP	38	0	0
BRK	38	192	7
BRK	38	288	7
STR	39	0	6
SI_	39	0	6	96	96	1
HLD	40	0	1	288
TAP	41	0	2
TAP	41	192	3
TAP	42	0	2
TAP	42	192	0
TAP	42	192	1
TAP	42	288	0
TAP	42	288	7
TAP	43	96	6
TAP	43	288	6
TAP	44	96	5
TAP	44	288	5
TAP	45	96	6
TAP	45	288	6
TAP	46	96	7
TAP	46	288	7
STR	47	0	0
SI_	47	0	0	96	96	4
STR	48	0	5
SI_	48	0	5	96	96	1
STR	49	0	2
SI_	49	0	2	96	96	6
STR	50	0	7
SI_	50	0	7	96	96	3
HLD	51	0	4	288
HLD	52	0	5	288
TAP	53	0	6
TAP	53	0	7
TAP	53	96	6
TAP	53	96	7
TAP	53	192	6
TAP	53	192	7
HLD	54	0	0	288
TAP	55	0	7
TAP	55	96	7
BRK	55	192	7

T_REC_TAP	96
T_REC_BRK	8
T_REC_XTP	0
T_REC_HLD	9
T_REC_XHO	0
T_REC_STR	10
T_REC_BST	0
T_REC_XST	0
T_REC_TTP	0
T_REC_THO	0
T_REC_SLD	10
T_REC_ALL	133
T_NUM_TAP	106
T_NUM_BRK	8
T_NUM_HLD	9
T_NUM_SLD	10
T_NUM_ALL	133
T_JUDGE_TAP	114
T_JUDGE_HLD	54
T_JUDGE_SLD	10
T_JUDGE_ALL	178
TTM_EACHPAIRS	19
TTM_SCR_TAP	53000
TTM_SCR_BRK	20800
TTM_SCR_HLD	9000
TTM_SCR_SLD	15000
TTM_SCR_ALL	97800
TTM_SCR_S	94100
TTM_SCR_SS	97000
TTM_RAT_ACV	10082

