VERSION	0.00.00	1.03.00
FES_MODE	0
BPM_DEF	138.000	138.000	138.000	138.000
MET_DEF	4	4
RESOLUTION	384
CLK_DEF	384
COMPATIBLE_CODE	MA2

BPM	0	0	138.000
MET	0	0	4	4

TAP	2	0	2
TAP	2	120	1
TAP	2	168	0
TAP	2	192	7
TAP	2	288	6
TAP	3	0	6
TAP	3	0	7
TAP	3	72	0
TAP	3	72	5
TAP	3	144	1
TAP	3	144	4
TAP	3	240	2
TAP	3	288	3
TAP	3	336	2
TAP	4	0	0
TAP	4	0	1
TAP	4	96	0
TAP	4	96	7
TAP	4	192	6
TAP	4	192	7
TAP	4	240	5
TAP	4	264	6
TAP	4	288	7
TAP	4	312	0
TAP	4	336	1
TAP	4	360	2
TAP	5	0	3
TAP	5	0	4
TAP	5	96	3
TAP	5	96	4
BRK	5	192	0
BRK	5	192	7
TAP	6	0	2
HLD	6	72	4	72
TAP	6	144	5
TAP	6	240	5
TAP	6	288	4
TAP	6	336	3
TAP	7	0	2
TAP	7	48	1
TAP	7	96	0
TAP	7	120	7
STR	7	168	1
SCL	7	168	1	96	48	6
TAP	8	0	5
TAP	8	48	6
TAP	8	96	7
TAP	8	120	0
TAP	8	168	1
TAP	8	240	3
TAP	8	288	4
STR	8	336	3
SI_	8	336	3	96	96	0
TAP	8	360	4
HLD	9	48	7	240
TAP	10	48	0
TAP	10	96	1
TAP	10	144	2
HLD	10	168	1	96
TAP	10	264	2
TAP	10	336	3
TAP	10	336	4
TAP	11	0	5
TAP	11	48	6
TAP	11	96	7
TAP	11	120	0
STR	11	168	5
SCL	11	168	5	96	48	2
TAP	11	288	1
TAP	11	336	0
TAP	12	0	7
TAP	12	48	5
TAP	12	96	3
TAP	12	120	4
TAP	12	168	2
TAP	12	240	2
TAP	12	288	1
TAP	12	336	0
TAP	13	48	1
TAP	13	48	6
TAP	13	96	3
TAP	13	96	4
BRK	13	192	0
BRK	13	192	7
TAP	14	0	7
TAP	14	48	6
TAP	14	48	7
TAP	14	96	1
TAP	14	144	0
TAP	14	144	1
TAP	14	192	2
TAP	14	240	2
TAP	14	240	3
TAP	14	288	4
TAP	14	336	4
TAP	14	336	5
TAP	15	0	1
TAP	15	48	0
TAP	15	48	1
TAP	15	96	2
TAP	15	144	2
TAP	15	144	3
TAP	15	192	7
TAP	15	240	6
TAP	15	240	7
TAP	15	288	4
TAP	15	336	4
TAP	15	336	5
TAP	16	0	7
TAP	16	48	6
TAP	16	96	5
TAP	16	144	4
TAP	16	192	3
TAP	16	240	2
TAP	16	288	1
TAP	16	336	0
TAP	17	0	1
TAP	17	24	6
TAP	17	48	1
TAP	17	72	6
TAP	17	96	0
TAP	17	144	7
BRK	17	168	0
TAP	18	0	7
TAP	18	48	6
TAP	18	48	7
TAP	18	96	7
TAP	18	144	6
TAP	18	144	7
TAP	18	192	2
TAP	18	240	2
TAP	18	240	3
TAP	18	288	2
TAP	18	336	2
TAP	18	336	3
TAP	19	0	1
TAP	19	48	0
TAP	19	48	1
TAP	19	96	1
TAP	19	144	0
TAP	19	144	1
TAP	19	192	4
TAP	19	240	4
TAP	19	240	5
TAP	19	288	4
TAP	19	336	4
TAP	19	336	5
TAP	20	0	0
TAP	20	48	7
TAP	20	96	6
TAP	20	144	5
TAP	20	192	4
TAP	20	240	3
TAP	20	288	2
TAP	20	336	1
TAP	21	0	0
TAP	21	144	3
TAP	21	192	4
TAP	21	264	2
TAP	21	264	5
BRK	21	336	0
BRK	21	336	7
HLD	22	0	2	96
HLD	22	96	4	144
TAP	22	144	6
HLD	22	240	6	96
TAP	22	288	7
TAP	22	336	0
TAP	23	48	0
TAP	23	72	7
TAP	23	96	0
TAP	23	120	7
TAP	23	144	0
TAP	23	168	7
STR	23	192	0
SI_	23	192	0	96	48	3
HLD	24	0	0	96
HLD	24	96	2	144
TAP	24	144	3
HLD	24	240	6	96
TAP	24	288	5
TAP	24	336	4
TAP	25	48	4
TAP	25	72	3
TAP	25	96	4
TAP	25	120	3
TAP	25	144	4
TAP	25	168	3
STR	25	192	4
SI_	25	192	4	96	48	7
TAP	25	288	2
TAP	25	336	1
TAP	26	0	0
TAP	26	72	0
TAP	26	144	6
TAP	26	192	5
TAP	26	240	4
TAP	26	288	3
HLD	26	336	2	240
TAP	27	0	3
TAP	27	96	3
HLD	27	192	6	96
TAP	27	288	5
TAP	28	0	1
TAP	28	0	6
TAP	28	96	3
TAP	28	96	4
BRK	28	192	0
BRK	28	192	7
TAP	29	0	4
TAP	29	72	5
HLD	29	144	6	192
TAP	29	240	4
TAP	29	288	3
TAP	29	336	2
TAP	30	0	1
TAP	30	48	0
TAP	30	96	7
TAP	30	120	0
HLD	30	168	6	120
BRK	30	240	2
BRK	30	288	2
TAP	30	336	3
TAP	31	0	4
TAP	31	48	5
TAP	31	96	3
TAP	31	120	4
TAP	31	168	6
TAP	31	240	7
TAP	31	288	1
TAP	31	336	3
HLD	31	360	0	312
HLD	32	48	6	240
TAP	33	48	0
TAP	33	96	1
TAP	33	144	2
HLD	33	168	1	96
TAP	33	264	2
TAP	33	336	3
TAP	33	336	4
TAP	34	0	5
TAP	34	48	6
TAP	34	96	7
TAP	34	120	0
STR	34	168	5
SCL	34	168	5	96	48	2
BRK	34	288	1
TAP	34	336	0
TAP	35	0	7
TAP	35	48	5
TAP	35	96	3
TAP	35	120	4
TAP	35	168	2
TAP	35	240	2
TAP	35	288	1
TAP	35	336	0
TAP	36	48	1
TAP	36	48	6
TAP	36	96	3
TAP	36	96	4
BRK	36	192	0
BRK	36	192	7
TAP	37	0	5
TAP	37	48	0
TAP	37	72	0
TAP	37	96	5
TAP	37	144	1
TAP	37	192	5
TAP	37	240	2
TAP	37	264	2
TAP	37	288	5
TAP	37	336	3
TAP	38	0	5
TAP	38	48	2
TAP	38	72	2
TAP	38	96	5
TAP	38	144	1
TAP	38	192	5
TAP	38	240	0
TAP	38	264	0
TAP	38	288	5
TAP	38	336	1
TAP	39	0	2
TAP	39	48	7
TAP	39	72	7
TAP	39	96	2
TAP	39	144	6
TAP	39	192	2
TAP	39	240	5
TAP	39	264	5
TAP	39	288	2
TAP	39	336	4
TAP	40	0	1
TAP	40	24	6
TAP	40	48	1
TAP	40	72	6
TAP	40	96	0
TAP	40	144	7
BRK	40	168	0
TAP	41	0	5
TAP	41	48	0
TAP	41	72	0
TAP	41	96	5
TAP	41	144	0
TAP	41	192	5
TAP	41	240	1
TAP	41	264	1
TAP	41	288	5
TAP	41	336	1
TAP	42	0	5
TAP	42	48	2
TAP	42	72	2
TAP	42	96	5
TAP	42	144	2
TAP	42	192	5
TAP	42	240	3
TAP	42	264	3
TAP	42	288	5
TAP	42	336	3
TAP	43	0	2
TAP	43	48	7
TAP	43	72	7
TAP	43	96	2
TAP	43	144	7
TAP	43	192	2
TAP	43	240	6
TAP	43	264	6
TAP	43	288	2
TAP	43	336	6
TAP	44	0	2
TAP	44	0	5
TAP	44	144	3
TAP	44	144	4
TAP	44	192	1
TAP	44	192	6
TAP	44	264	1
TAP	44	264	6
TAP	44	336	0
TAP	44	336	7
BRK	45	0	3
BRK	45	0	4
TAP	45	144	3
TAP	45	144	4
TAP	45	192	1
TAP	45	192	6
TAP	45	264	3
TAP	45	264	4
BRK	45	336	0
BRK	45	336	7
HLD	46	0	3	96
HLD	46	96	5	144
TAP	46	144	6
HLD	46	240	1	96
TAP	46	288	0
TAP	46	336	7
TAP	47	48	1
TAP	47	72	0
TAP	47	96	7
TAP	47	120	0
TAP	47	144	7
TAP	47	168	6
STR	47	192	7
SCR	47	192	7	96	48	2
HLD	48	0	3	96
HLD	48	96	5	144
TAP	48	144	0
HLD	48	240	6	96
TAP	48	288	5
TAP	48	336	0
TAP	49	48	4
TAP	49	72	5
TAP	49	96	3
TAP	49	120	4
TAP	49	144	2
TAP	49	168	3
STR	49	192	2
SCL	49	192	2	96	48	7
TAP	49	288	4
TAP	49	336	5
TAP	50	0	6
TAP	50	72	7
TAP	50	144	6
TAP	50	192	5
TAP	50	240	4
TAP	50	288	3
HLD	50	336	2	240
TAP	51	0	3
TAP	51	96	3
HLD	51	192	6	96
TAP	51	288	5
TAP	52	0	0
TAP	52	72	6
TAP	52	144	4
TAP	52	192	3
TAP	52	240	2
TAP	52	288	1
HLD	52	336	1	240
TAP	53	0	5
TAP	53	96	2
HLD	53	192	6	96
TAP	53	288	5
TAP	54	0	1
TAP	54	0	6
TAP	54	96	3
TAP	54	96	4
BRK	54	192	1
BRK	54	192	6
TAP	55	0	0
TAP	55	0	7
TAP	55	96	2
TAP	55	96	5
BRK	55	192	0
BRK	55	192	7

T_REC_TAP	348
T_REC_BRK	23
T_REC_XTP	0
T_REC_HLD	26
T_REC_XHO	0
T_REC_STR	8
T_REC_BST	0
T_REC_XST	0
T_REC_TTP	0
T_REC_THO	0
T_REC_SLD	8
T_REC_ALL	413
T_NUM_TAP	356
T_NUM_BRK	23
T_NUM_HLD	26
T_NUM_SLD	8
T_NUM_ALL	413
T_JUDGE_TAP	379
T_JUDGE_HLD	79
T_JUDGE_SLD	8
T_JUDGE_ALL	466
TTM_EACHPAIRS	54
TTM_SCR_TAP	178000
TTM_SCR_BRK	59800
TTM_SCR_HLD	26000
TTM_SCR_SLD	12000
TTM_SCR_ALL	275800
TTM_SCR_S	265300
TTM_SCR_SS	273500
TTM_RAT_ACV	10084

