VERSION	0.00.00	1.03.00
FES_MODE	0
BPM_DEF	138.000	138.000	138.000	138.000
MET_DEF	4	4
RESOLUTION	384
CLK_DEF	384
COMPATIBLE_CODE	MA2

BPM	0	0	138.000
MET	0	0	4	4

TAP	2	0	1
TAP	2	0	6
TAP	2	192	3
TAP	2	192	4
TAP	3	0	2
TAP	3	72	6
BRK	3	144	0
TAP	4	0	2
TAP	4	0	6
TAP	4	96	1
TAP	4	96	5
TAP	4	192	2
TAP	4	192	6
TAP	5	0	0
TAP	5	0	4
TAP	5	96	3
TAP	5	96	7
TAP	5	192	0
TAP	5	192	4
TAP	6	0	7
TAP	6	96	6
TAP	6	96	7
TAP	6	192	5
TAP	6	288	3
TAP	6	288	4
TAP	7	0	5
TAP	7	48	6
TAP	7	96	7
TAP	7	120	7
TAP	7	168	0
TAP	7	168	7
TAP	8	0	7
TAP	8	48	6
TAP	8	96	5
TAP	8	120	5
TAP	8	168	4
TAP	8	168	5
TAP	9	0	3
TAP	9	96	2
TAP	9	96	3
TAP	9	192	4
TAP	9	288	4
TAP	9	288	5
TAP	10	0	0
TAP	10	96	0
TAP	10	96	1
TAP	10	192	2
TAP	10	288	2
TAP	10	288	3
TAP	11	0	1
TAP	11	48	0
TAP	11	96	7
TAP	11	120	7
TAP	11	168	6
TAP	11	168	7
TAP	12	0	7
TAP	12	48	0
TAP	12	96	1
TAP	12	120	1
TAP	12	168	1
TAP	12	168	2
TAP	12	240	0
TAP	12	288	7
BRK	12	336	6
TAP	13	48	0
TAP	13	48	7
TAP	13	96	0
TAP	13	96	7
TAP	13	192	0
TAP	13	192	1
TAP	14	0	7
TAP	14	48	6
TAP	14	96	7
TAP	14	144	6
TAP	14	192	0
TAP	14	240	7
TAP	14	288	0
TAP	14	336	7
TAP	15	0	1
TAP	15	48	0
TAP	15	96	1
TAP	15	144	0
TAP	15	192	2
TAP	15	240	1
TAP	15	288	2
TAP	15	336	1
TAP	16	0	0
TAP	16	48	7
TAP	16	96	6
TAP	16	144	5
TAP	16	192	4
TAP	16	240	3
TAP	16	288	2
TAP	16	336	1
TAP	17	0	0
TAP	17	48	1
TAP	17	96	2
TAP	17	144	3
TAP	17	192	4
TAP	17	240	5
TAP	17	288	6
TAP	17	336	7
TAP	18	0	0
TAP	18	48	1
TAP	18	96	0
TAP	18	144	1
TAP	18	192	7
TAP	18	240	0
TAP	18	288	7
TAP	18	336	0
TAP	19	0	6
TAP	19	48	7
TAP	19	96	6
TAP	19	144	7
TAP	19	192	5
TAP	19	240	6
TAP	19	288	5
TAP	19	336	6
STR	20	0	4
SI_	20	0	4	96	96	7
TAP	20	48	4
STR	20	192	0
SI_	20	192	0	96	96	3
TAP	20	240	0
BRK	21	0	6
TAP	21	144	0
HLD	21	192	0	96
TAP	21	264	1
TAP	21	336	2
TAP	22	0	1
TAP	22	96	0
TAP	22	144	0
TAP	22	240	7
TAP	22	288	6
TAP	22	336	5
TAP	23	48	0
TAP	23	72	7
TAP	23	96	0
TAP	23	120	7
TAP	23	144	0
TAP	23	168	7
BRK	23	192	0
TAP	24	0	1
TAP	24	96	2
TAP	24	144	2
TAP	24	240	3
TAP	24	288	4
TAP	24	336	5
TAP	25	48	4
TAP	25	72	3
TAP	25	96	4
TAP	25	120	3
TAP	25	144	4
TAP	25	168	3
BRK	25	192	4
TAP	26	0	4
TAP	26	72	6
TAP	26	144	0
TAP	26	192	7
TAP	26	240	6
TAP	26	288	5
HLD	26	336	4	336
TAP	28	0	2
TAP	28	0	6
TAP	28	96	1
TAP	28	96	5
TAP	28	192	2
TAP	28	192	6
TAP	29	0	7
TAP	29	96	6
TAP	29	96	7
TAP	29	192	5
TAP	29	288	3
TAP	29	288	4
TAP	30	0	5
TAP	30	48	6
TAP	30	96	7
TAP	30	120	7
TAP	30	168	0
TAP	30	168	7
BRK	30	240	1
BRK	30	288	1
TAP	31	0	7
TAP	31	48	6
TAP	31	96	5
TAP	31	120	5
TAP	31	168	4
TAP	31	168	5
BRK	31	336	6
BRK	31	336	7
BRK	32	48	0
BRK	32	48	7
TAP	33	0	0
TAP	33	96	0
TAP	33	96	1
TAP	33	192	2
TAP	33	288	2
TAP	33	288	3
TAP	34	0	1
TAP	34	48	0
TAP	34	96	7
TAP	34	120	7
TAP	34	168	6
TAP	34	168	7
BRK	34	288	5
BRK	34	288	6
TAP	35	0	7
TAP	35	48	0
TAP	35	96	1
TAP	35	120	1
TAP	35	168	1
TAP	35	168	2
TAP	35	240	0
TAP	35	288	7
TAP	35	336	6
TAP	36	48	0
TAP	36	48	7
TAP	36	96	0
TAP	36	96	7
TAP	36	192	0
TAP	36	192	1
TAP	37	0	7
TAP	37	48	6
TAP	37	96	7
TAP	37	144	6
TAP	37	192	0
TAP	37	240	7
TAP	37	288	0
TAP	37	336	7
TAP	38	0	1
TAP	38	48	0
TAP	38	96	1
TAP	38	144	0
TAP	38	192	2
TAP	38	240	1
TAP	38	288	2
TAP	38	336	1
TAP	39	0	0
TAP	39	48	7
TAP	39	96	6
TAP	39	144	5
TAP	39	192	4
TAP	39	240	3
TAP	39	288	2
TAP	39	336	1
TAP	40	0	0
TAP	40	48	1
TAP	40	96	2
TAP	40	144	3
TAP	40	192	4
TAP	40	240	5
TAP	40	288	6
TAP	40	336	7
TAP	41	0	0
TAP	41	48	1
TAP	41	96	0
TAP	41	144	1
TAP	41	192	7
TAP	41	240	0
TAP	41	288	7
TAP	41	336	0
TAP	42	0	6
TAP	42	48	7
TAP	42	96	6
TAP	42	144	7
TAP	42	192	5
TAP	42	240	6
TAP	42	288	5
TAP	42	336	6
STR	43	0	4
SI_	43	0	4	96	96	7
TAP	43	48	4
STR	43	192	0
SI_	43	192	0	96	96	3
TAP	43	240	0
HLD	44	0	6	96
TAP	44	144	0
HLD	44	192	0	72
TAP	44	264	1
BRK	44	336	2
HLD	45	0	1	96
TAP	45	144	0
HLD	45	192	7	72
TAP	45	264	6
BRK	45	336	5
TAP	46	0	1
TAP	46	96	0
TAP	46	144	0
TAP	46	240	7
TAP	46	288	6
TAP	46	336	5
TAP	47	48	0
TAP	47	72	7
TAP	47	96	0
TAP	47	120	7
TAP	47	144	0
TAP	47	168	7
BRK	47	192	0
TAP	48	0	1
TAP	48	96	2
TAP	48	144	2
TAP	48	240	3
TAP	48	288	4
TAP	48	336	5
TAP	49	48	4
TAP	49	72	3
TAP	49	96	4
TAP	49	120	3
TAP	49	144	4
TAP	49	168	3
BRK	49	192	4
TAP	50	0	4
TAP	50	72	6
TAP	50	144	0
TAP	50	192	7
TAP	50	240	6
TAP	50	288	5
HLD	50	336	4	336
TAP	52	0	3
TAP	52	72	5
TAP	52	144	7
TAP	52	192	6
TAP	52	240	4
TAP	52	288	2
HLD	52	336	0	336
TAP	54	0	2
TAP	54	0	6
TAP	54	96	1
TAP	54	96	5
TAP	54	192	2
TAP	54	192	6
BRK	55	0	3
BRK	55	0	7
BRK	55	96	1
BRK	55	96	5
BRK	55	192	3
BRK	55	192	7

T_REC_TAP	298
T_REC_BRK	23
T_REC_XTP	0
T_REC_HLD	8
T_REC_XHO	0
T_REC_STR	4
T_REC_BST	0
T_REC_XST	0
T_REC_TTP	0
T_REC_THO	0
T_REC_SLD	4
T_REC_ALL	337
T_NUM_TAP	302
T_NUM_BRK	23
T_NUM_HLD	8
T_NUM_SLD	4
T_NUM_ALL	337
T_JUDGE_TAP	325
T_JUDGE_HLD	31
T_JUDGE_SLD	4
T_JUDGE_ALL	360
TTM_EACHPAIRS	44
TTM_SCR_TAP	151000
TTM_SCR_BRK	59800
TTM_SCR_HLD	8000
TTM_SCR_SLD	6000
TTM_SCR_ALL	224800
TTM_SCR_S	215850
TTM_SCR_SS	222500
TTM_RAT_ACV	10103

