VERSION	0.00.00	1.03.00
FES_MODE	0
BPM_DEF	138.000	138.000	138.000	138.000
MET_DEF	4	4
RESOLUTION	384
CLK_DEF	384
COMPATIBLE_CODE	MA2

BPM	0	0	138.000
MET	0	0	4	4

TAP	2	0	6
TAP	2	288	7
TAP	3	0	0
TAP	4	0	2
TAP	4	96	5
TAP	4	192	0
TAP	4	192	7
TAP	5	0	3
TAP	5	96	4
TAP	5	192	0
TAP	5	192	7
TAP	6	0	0
TAP	6	96	2
TAP	6	192	4
TAP	6	288	6
TAP	7	0	0
TAP	7	96	7
TAP	7	192	3
TAP	7	192	4
TAP	8	0	2
TAP	8	96	3
TAP	8	192	3
TAP	8	192	4
TAP	9	0	2
TAP	9	96	5
TAP	9	192	2
TAP	9	288	5
TAP	10	0	1
TAP	10	96	0
TAP	10	192	7
TAP	10	288	6
TAP	11	0	7
TAP	11	96	0
TAP	11	192	0
TAP	11	192	1
TAP	12	0	0
TAP	12	96	7
TAP	12	192	6
TAP	12	192	7
TAP	13	48	3
TAP	13	96	4
BRK	13	192	1
BRK	13	192	6
TAP	14	0	0
TAP	14	96	1
TAP	14	192	2
TAP	14	288	3
TAP	15	0	4
TAP	15	96	5
TAP	15	192	6
TAP	15	288	7
TAP	16	0	7
TAP	16	96	6
TAP	16	192	5
TAP	16	288	4
TAP	17	0	3
TAP	17	96	2
TAP	17	192	1
TAP	17	288	0
HLD	18	0	1	96
TAP	18	96	2
HLD	18	192	6	96
TAP	18	288	5
HLD	19	0	2	96
TAP	19	96	3
HLD	19	192	5	96
TAP	19	288	4
TAP	20	0	0
TAP	20	96	2
TAP	20	96	3
TAP	20	192	7
TAP	20	288	4
TAP	20	288	5
TAP	21	0	0
TAP	21	0	7
TAP	21	192	2
TAP	21	288	5
TAP	22	0	2
TAP	22	96	3
TAP	22	192	5
TAP	22	288	4
TAP	23	0	3
TAP	23	96	4
BRK	23	192	0
BRK	23	192	7
TAP	24	0	7
TAP	24	96	6
TAP	24	192	7
TAP	24	288	0
TAP	25	0	1
TAP	25	96	0
TAP	25	192	2
TAP	25	192	5
TAP	26	0	1
TAP	26	96	6
TAP	26	192	3
TAP	26	288	4
TAP	27	0	0
HLD	27	96	7	192
HLD	27	192	0	96
BRK	28	0	0
BRK	28	0	1
BRK	28	96	0
BRK	28	96	7
BRK	28	192	6
BRK	28	192	7
TAP	29	0	0
TAP	29	96	7
TAP	29	192	0
TAP	29	288	7
TAP	30	0	1
STR	30	96	6
SI_	30	96	6	96	96	1
TAP	31	0	6
STR	31	96	2
SI_	31	96	2	96	96	5
TAP	32	0	6
TAP	32	96	7
TAP	32	192	0
TAP	32	288	1
TAP	33	0	2
TAP	33	96	3
TAP	33	192	4
TAP	33	288	5
TAP	34	0	4
TAP	34	96	3
TAP	34	192	0
TAP	34	192	7
TAP	35	0	2
TAP	35	96	5
TAP	35	192	1
TAP	35	192	6
TAP	36	48	0
TAP	36	96	0
BRK	36	192	0
BRK	36	192	7
TAP	37	0	2
TAP	37	96	3
TAP	37	192	2
TAP	37	288	2
TAP	37	288	3
TAP	38	0	5
TAP	38	96	4
TAP	38	192	5
TAP	38	288	4
TAP	38	288	5
TAP	39	0	0
TAP	39	96	1
TAP	39	192	0
TAP	39	288	0
TAP	39	288	1
TAP	40	0	7
TAP	40	96	6
TAP	40	192	7
TAP	40	288	6
TAP	40	288	7
HLD	41	0	3	96
TAP	41	96	4
HLD	41	192	7	96
TAP	41	288	0
HLD	42	0	6	96
TAP	42	96	5
HLD	42	192	1	96
TAP	42	288	2
TAP	43	0	1
TAP	43	96	0
TAP	43	96	1
TAP	43	192	0
TAP	43	288	0
TAP	43	288	7
TAP	44	0	6
TAP	44	0	7
TAP	44	192	3
TAP	44	288	4
TAP	45	0	3
TAP	45	0	4
TAP	45	192	1
TAP	45	192	6
BRK	45	288	0
BRK	45	288	7
TAP	46	0	2
TAP	46	96	1
TAP	46	192	0
TAP	46	288	7
TAP	47	0	6
TAP	47	96	5
TAP	47	192	0
TAP	47	192	7
HLD	48	0	1	96
TAP	48	96	2
HLD	48	192	6	96
TAP	48	288	5
TAP	49	0	3
TAP	49	96	4
TAP	49	192	0
TAP	49	192	7
TAP	50	0	2
TAP	50	96	5
TAP	50	192	3
TAP	50	288	4
TAP	51	0	0
STR	51	96	7
SI_	51	96	7	96	96	4
TAP	52	0	1
TAP	52	96	6
TAP	52	192	3
TAP	52	288	4
TAP	53	0	0
HLD	53	96	7	192
HLD	53	192	0	96
BRK	54	0	0
BRK	54	0	1
BRK	54	96	0
BRK	54	96	7
BRK	54	192	6
BRK	54	192	7
BRK	55	0	1
BRK	55	0	6
BRK	55	96	3
BRK	55	96	4
BRK	55	192	0
BRK	55	192	7

T_REC_TAP	176
T_REC_BRK	26
T_REC_XTP	0
T_REC_HLD	14
T_REC_XHO	0
T_REC_STR	3
T_REC_BST	0
T_REC_XST	0
T_REC_TTP	0
T_REC_THO	0
T_REC_SLD	3
T_REC_ALL	222
T_NUM_TAP	179
T_NUM_BRK	26
T_NUM_HLD	14
T_NUM_SLD	3
T_NUM_ALL	222
T_JUDGE_TAP	205
T_JUDGE_HLD	32
T_JUDGE_SLD	3
T_JUDGE_ALL	240
TTM_EACHPAIRS	36
TTM_SCR_TAP	89500
TTM_SCR_BRK	67600
TTM_SCR_HLD	14000
TTM_SCR_SLD	4500
TTM_SCR_ALL	175600
TTM_SCR_S	167850
TTM_SCR_SS	173000
TTM_RAT_ACV	10150

