VERSION	0.00.00	1.03.00
FES_MODE	0
BPM_DEF	138.000	138.000	138.000	138.000
MET_DEF	4	4
RESOLUTION	384
CLK_DEF	384
COMPATIBLE_CODE	MA2

BPM	0	0	138.000
MET	0	0	4	4

TAP	4	0	0
TAP	4	96	0
TAP	4	192	0
TAP	5	0	7
TAP	5	96	7
TAP	5	192	7
TAP	6	0	1
TAP	6	192	1
TAP	7	0	1
TAP	7	96	1
TAP	7	192	1
TAP	8	0	2
TAP	8	96	2
TAP	8	192	2
TAP	9	0	3
TAP	9	192	3
TAP	10	0	4
TAP	10	192	4
TAP	11	0	5
TAP	11	96	5
TAP	11	192	5
TAP	12	0	6
TAP	12	96	6
TAP	12	192	6
TAP	13	96	7
BRK	13	192	7
HLD	14	0	6	96
HLD	14	192	7	96
HLD	15	0	0	96
HLD	15	192	1	96
TAP	16	0	0
TAP	16	96	0
TAP	16	192	0
TAP	17	0	7
TAP	17	96	7
TAP	17	192	7
STR	18	0	0
SI_	18	0	0	96	96	4
STR	19	0	3
SI_	19	0	3	96	96	7
TAP	20	0	6
TAP	20	192	1
TAP	21	0	0
TAP	21	0	7
TAP	22	96	1
TAP	22	288	1
TAP	23	96	2
TAP	23	192	2
TAP	24	96	7
TAP	24	288	7
TAP	25	96	6
TAP	25	192	6
TAP	26	96	7
TAP	26	288	0
TAP	27	96	7
TAP	28	0	0
TAP	28	0	7
TAP	28	96	6
TAP	28	96	7
BRK	28	192	0
BRK	28	192	7
TAP	29	96	1
TAP	29	288	1
TAP	30	96	1
TAP	30	240	2
TAP	30	288	2
TAP	31	96	1
TAP	31	288	1
TAP	32	96	0
TAP	32	288	0
TAP	33	96	7
TAP	33	288	7
TAP	34	96	6
TAP	34	288	5
TAP	34	288	6
TAP	35	96	7
TAP	35	288	7
TAP	36	48	0
TAP	36	48	7
TAP	36	96	0
TAP	36	96	7
BRK	36	192	0
BRK	36	192	7
TAP	37	0	0
TAP	37	96	0
TAP	37	192	1
TAP	37	288	1
TAP	38	0	2
TAP	38	96	2
TAP	38	192	3
TAP	39	0	4
TAP	39	96	4
TAP	39	192	5
TAP	40	0	6
TAP	40	96	6
TAP	40	192	7
TAP	41	0	0
TAP	41	0	7
TAP	41	192	0
TAP	41	192	7
TAP	42	0	1
TAP	42	0	6
TAP	42	192	1
TAP	42	192	6
TAP	43	0	2
TAP	43	0	5
TAP	43	192	2
TAP	43	192	5
TAP	44	0	3
TAP	44	0	4
TAP	45	0	1
TAP	45	0	6
TAP	46	0	7
TAP	46	96	7
TAP	46	192	6
TAP	46	288	6
TAP	47	0	5
TAP	47	96	5
TAP	47	192	5
TAP	48	0	0
TAP	48	96	0
TAP	48	192	1
TAP	48	288	1
TAP	49	0	2
TAP	49	96	2
TAP	49	192	2
TAP	50	0	0
TAP	50	0	1
TAP	50	192	0
TAP	50	192	1
STR	51	0	0
SI_	51	0	0	96	96	4
TAP	52	0	6
TAP	52	0	7
TAP	52	192	6
TAP	52	192	7
STR	53	0	7
SI_	53	0	7	96	96	3
TAP	54	0	0
TAP	54	0	7
TAP	54	96	0
TAP	54	96	7
TAP	54	192	0
TAP	54	192	7
TAP	55	0	1
TAP	55	0	6
TAP	55	96	1
TAP	55	96	6
BRK	55	192	1
BRK	55	192	6

T_REC_TAP	131
T_REC_BRK	7
T_REC_XTP	0
T_REC_HLD	4
T_REC_XHO	0
T_REC_STR	4
T_REC_BST	0
T_REC_XST	0
T_REC_TTP	0
T_REC_THO	0
T_REC_SLD	4
T_REC_ALL	150
T_NUM_TAP	135
T_NUM_BRK	7
T_NUM_HLD	4
T_NUM_SLD	4
T_NUM_ALL	150
T_JUDGE_TAP	142
T_JUDGE_HLD	8
T_JUDGE_SLD	4
T_JUDGE_ALL	154
TTM_EACHPAIRS	26
TTM_SCR_TAP	67500
TTM_SCR_BRK	18200
TTM_SCR_HLD	4000
TTM_SCR_SLD	6000
TTM_SCR_ALL	95700
TTM_SCR_S	92150
TTM_SCR_SS	95000
TTM_RAT_ACV	10073

