VERSION	0.00.00	1.03.00
FES_MODE	0
BPM_DEF	108.000	108.000	108.000	108.000
MET_DEF	4	4
RESOLUTION	384
CLK_DEF	384
COMPATIBLE_CODE	MA2

BPM	0	0	108.000
MET	0	0	4	4

HLD	2	48	2	96
TAP	2	96	1
HLD	2	144	0	96
TAP	2	192	7
HLD	2	240	6	96
TAP	2	288	5
HLD	2	336	4	96
TAP	3	0	5
HLD	3	48	5	96
TAP	3	96	6
HLD	3	144	7	96
TAP	3	192	0
HLD	3	240	1	96
TAP	3	288	2
HLD	4	48	6	96
TAP	4	96	5
HLD	4	144	4	96
TAP	4	192	3
HLD	4	240	2	96
TAP	4	288	1
HLD	4	336	0	96
TAP	5	0	1
HLD	5	48	1	96
TAP	5	96	2
HLD	5	144	3	96
TAP	5	192	4
HLD	5	240	5	96
TAP	5	288	6
HLD	6	48	0	96
TAP	6	96	1
HLD	6	144	2	96
TAP	6	192	3
HLD	6	240	7	96
TAP	6	288	6
HLD	6	336	5	96
TAP	7	0	4
HLD	7	48	1	96
TAP	7	96	0
HLD	7	144	4	96
TAP	7	192	3
HLD	7	240	7	96
TAP	7	288	6
HLD	7	336	5	384
TAP	8	0	3
TAP	8	96	3
TAP	8	192	3
TAP	8	288	3
BRK	8	336	3
STR	9	0	7
SI_	9	0	7	96	192	3
TAP	10	48	0
TAP	10	96	0
TAP	10	144	7
TAP	10	192	7
TAP	10	240	6
TAP	10	288	6
TAP	10	312	5
TAP	10	336	4
TAP	10	360	3
STR	11	0	2
SI_	11	0	2	96	96	7
TAP	11	192	4
TAP	12	48	7
TAP	12	96	7
TAP	12	144	0
TAP	12	192	0
TAP	12	240	1
TAP	12	288	1
TAP	12	312	2
TAP	12	336	3
TAP	12	360	4
STR	13	0	5
SI_	13	0	5	96	96	0
TAP	13	192	3
TAP	14	48	6
TAP	14	96	6
TAP	14	144	5
TAP	14	192	5
TAP	14	240	4
TAP	14	288	4
TAP	14	312	3
TAP	14	336	2
TAP	14	360	1
STR	15	0	0
SI_	15	0	0	96	96	5
TAP	15	192	3
TAP	15	336	0
TAP	15	336	7
STR	15	360	2
SI_	15	360	2	96	120	5
STR	16	0	2
SCR	16	0	2	96	96	5
TAP	16	240	3
TAP	16	288	2
TAP	16	336	1
STR	17	0	0
SI_	17	0	0	96	48	4
STR	17	96	6
SI_	17	96	6	96	48	2
STR	17	192	7
SI_	17	192	7	96	48	3
STR	17	288	1
SI_	17	288	1	96	48	5
TAP	18	48	0
STR	18	96	0
SI_	18	96	0	96	48	5
TAP	18	144	0
TAP	18	240	1
STR	18	288	1
SI_	18	288	1	96	48	4
TAP	18	336	1
TAP	19	48	6
STR	19	96	6
SI_	19	96	6	96	48	3
TAP	19	144	6
TAP	19	240	7
STR	19	288	7
SI_	19	288	7	96	48	2
TAP	19	336	7
TAP	20	48	0
STR	20	96	0
SCL	20	96	0	96	48	5
TAP	20	144	0
TAP	20	240	1
STR	20	288	1
SCR	20	288	1	96	48	4
TAP	20	336	1
TAP	21	48	6
STR	21	96	6
SCL	21	96	6	96	48	3
TAP	21	144	6
TAP	21	240	7
STR	21	288	7
SCR	21	288	7	96	48	2
TAP	22	48	0
STR	22	96	0
SCR	22	96	0	96	48	3
TAP	22	144	0
TAP	22	240	5
STR	22	288	5
SCL	22	288	5	96	48	2
TAP	22	336	5
TAP	23	48	6
STR	23	96	6
SCR	23	96	6	96	48	1
TAP	23	144	6
TAP	23	240	3
TAP	23	288	3
STR	23	336	7
SI_	23	336	7	96	48	3
BRK	23	360	7
STR	24	0	7
SI_	24	0	7	96	48	4
STR	24	144	0
SI_	24	144	0	96	48	3
BRK	24	168	0
STR	24	192	0
SI_	24	192	0	96	48	4
STR	24	336	0
SI_	24	336	0	96	240	3
STR	24	360	7
SI_	24	360	7	96	216	4
BRK	25	0	0
HLD	26	0	6	96
HLD	26	96	5	96
STR	26	192	4
SI_	26	192	4	96	48	1
TAP	26	288	4
TAP	27	0	1
TAP	27	24	1
STR	27	48	2
SCR	27	48	2	96	96	5
TAP	27	72	1
TAP	27	336	2
TAP	27	360	1
HLD	28	0	0	96
HLD	28	96	1	96
HLD	28	192	2	96
STR	28	288	3
SI_	28	288	3	96	192	6
HLD	29	0	3	192
HLD	30	0	5	96
HLD	30	96	4	96
STR	30	192	3
SI_	30	192	3	96	48	0
TAP	30	288	3
TAP	31	0	5
TAP	31	24	5
STR	31	48	4
SCL	31	48	4	96	96	1
TAP	31	72	5
STR	31	336	7
SCR	31	336	7	96	48	2
TAP	31	360	7
STR	32	0	2
SCR	32	0	2	96	48	5
STR	32	144	0
SCL	32	144	0	96	48	5
TAP	32	168	0
STR	32	192	5
SCL	32	192	5	96	48	2
STR	32	336	1
SCR	32	336	1	96	48	4
TAP	32	360	1
STR	33	0	4
SI_	33	0	4	96	192	0
STR	35	0	5
SCR	35	0	5	96	96	0
TAP	35	48	5
STR	35	96	0
SI_	35	96	0	96	96	4
TAP	35	144	0
STR	35	192	4
SCL	35	192	4	96	96	1
TAP	35	240	4
STR	35	288	1
SI_	35	288	1	96	96	6
TAP	35	336	1
STR	36	0	6
SCL	36	0	6	96	96	3
TAP	36	48	6
STR	36	96	3
SI_	36	96	3	96	96	7
TAP	36	144	3
STR	36	192	7
SCR	36	192	7	96	96	2
TAP	36	240	7
TAP	37	48	0
TAP	37	96	1
TAP	37	144	2
TAP	37	192	7
TAP	37	240	6
TAP	37	264	6
TAP	37	288	5
STR	37	336	4
SI_	37	336	4	96	144	0
HLD	38	0	4	192
STR	39	0	7
SCL	39	0	7	96	96	4
TAP	39	48	7
STR	39	96	4
SI_	39	96	4	96	96	0
TAP	39	144	4
STR	39	192	0
SCR	39	192	0	96	96	3
TAP	39	240	0
STR	39	288	3
SI_	39	288	3	96	96	7
TAP	39	336	3
STR	40	0	7
SCL	40	0	7	96	48	4
STR	40	48	4
SI_	40	48	4	96	48	0
STR	40	96	0
SCR	40	96	0	96	48	3
STR	40	144	3
SI_	40	144	3	96	96	7
TAP	41	0	7
TAP	41	48	7
TAP	41	72	6
TAP	41	96	5
TAP	41	144	5
STR	41	192	2
SI_	41	192	2	96	48	7
TAP	41	240	2
STR	41	288	4
SCL	41	288	4	96	192	1
TAP	41	336	4
STR	42	288	6
SI_	42	288	6	96	48	1
STR	42	288	7
SI_	42	288	7	96	48	4
STR	43	96	2
SI_	43	96	2	96	48	5
STR	43	96	3
SI_	43	96	3	96	48	0
STR	43	288	0
SI_	43	288	0	96	48	3
STR	43	288	1
SI_	43	288	1	96	48	6
STR	44	96	4
SI_	44	96	4	96	48	7
STR	44	96	5
SI_	44	96	5	96	48	2
STR	44	336	7
SI_	44	336	7	96	48	2
TAP	44	360	7
STR	45	0	6
SCL	45	0	6	96	48	3
STR	45	144	0
SI_	45	144	0	96	48	5
TAP	45	168	0
STR	45	192	1
SCR	45	192	1	96	48	4
STR	45	336	7
SI_	45	336	7	96	240	3
HLD	46	0	7	288
TAP	46	336	5
TAP	46	360	6
STR	47	0	7
SI_	47	0	7	96	96	3
TAP	47	48	7
TAP	47	96	0
TAP	47	144	6
TAP	47	192	1
TAP	47	240	5
TAP	47	288	2
BRK	47	336	4
STR	48	48	1
SCR	48	48	1	96	48	4
TAP	48	96	1
STR	48	144	1
SCL	48	144	1	96	48	6
TAP	48	192	1
STR	48	240	5
SCL	48	240	5	96	48	2
TAP	48	288	5
STR	48	336	5
SCR	48	336	5	96	48	0
TAP	49	0	5
STR	49	48	1
SCR	49	48	1	96	48	4
TAP	49	96	1
STR	49	144	1
SCL	49	144	1	96	48	6
TAP	49	192	1
STR	49	240	5
SCL	49	240	5	96	48	2
TAP	49	288	5
STR	50	48	6
SCR	50	48	6	96	48	1
TAP	50	96	6
STR	50	144	6
SCL	50	144	6	96	48	3
TAP	50	192	6
STR	50	240	2
SCL	50	240	2	96	48	7
TAP	50	288	2
STR	50	336	2
SCR	50	336	2	96	48	5
TAP	51	0	2
STR	51	48	6
SCR	51	48	6	96	48	1
TAP	51	96	6
STR	51	144	6
SCL	51	144	6	96	48	3
TAP	51	192	6
STR	51	240	2
SCL	51	240	2	96	48	7
TAP	51	288	2
STR	52	48	0
SI_	52	48	0	96	24	4
STR	52	96	0
SCR	52	96	0	96	24	3
STR	52	144	0
SI_	52	144	0	96	24	5
STR	52	192	0
SI_	52	192	0	96	24	3
STR	52	240	0
SI_	52	240	0	96	24	4
TAP	52	288	0
STR	53	48	7
SI_	53	48	7	96	24	2
STR	53	96	7
SCL	53	96	7	96	24	4
STR	53	144	7
SI_	53	144	7	96	24	3
STR	53	192	7
SI_	53	192	7	96	24	4
STR	53	240	7
SI_	53	240	7	96	24	2
TAP	53	288	7
TAP	54	0	0
TAP	54	24	5
TAP	54	48	7
TAP	54	72	1
TAP	54	96	6
TAP	54	120	0
TAP	54	144	7
TAP	54	168	2
TAP	54	192	0
TAP	54	216	5
TAP	54	240	6
TAP	54	264	2
TAP	54	288	1
TAP	54	312	7
TAP	54	336	5
TAP	54	360	6
HLD	55	0	2	384

T_REC_TAP	163
T_REC_BRK	5
T_REC_XTP	0
T_REC_HLD	33
T_REC_XHO	0
T_REC_STR	94
T_REC_BST	0
T_REC_XST	0
T_REC_TTP	0
T_REC_THO	0
T_REC_SLD	94
T_REC_ALL	389
T_NUM_TAP	257
T_NUM_BRK	5
T_NUM_HLD	33
T_NUM_SLD	94
T_NUM_ALL	389
T_JUDGE_TAP	262
T_JUDGE_HLD	172
T_JUDGE_SLD	94
T_JUDGE_ALL	528
TTM_EACHPAIRS	5
TTM_SCR_TAP	128500
TTM_SCR_BRK	13000
TTM_SCR_HLD	33000
TTM_SCR_SLD	141000
TTM_SCR_ALL	315500
TTM_SCR_S	305550
TTM_SCR_SS	315000
TTM_RAT_ACV	10015

