VERSION	0.00.00	1.03.00
FES_MODE	0
BPM_DEF	108.000	108.000	108.000	108.000
MET_DEF	4	4
RESOLUTION	384
CLK_DEF	384
COMPATIBLE_CODE	MA2

BPM	0	0	108.000
MET	0	0	4	4

TAP	1	0	1
TAP	1	24	2
TAP	1	48	0
TAP	1	72	1
TAP	1	96	7
TAP	1	120	0
TAP	1	144	6
TAP	1	168	7
STR	1	192	5
SI_	1	192	5	96	48	1
TAP	2	0	0
TAP	2	48	0
TAP	2	96	0
TAP	2	96	2
TAP	2	144	0
TAP	2	192	1
TAP	2	240	1
TAP	2	288	1
TAP	2	288	3
TAP	2	336	1
TAP	3	0	7
TAP	3	48	7
TAP	3	96	5
TAP	3	96	7
TAP	3	144	7
TAP	3	192	6
TAP	3	240	6
TAP	3	288	4
TAP	3	288	6
TAP	3	336	5
TAP	4	48	2
TAP	4	96	2
TAP	4	96	4
TAP	4	144	2
TAP	4	192	5
TAP	4	240	5
TAP	4	288	3
TAP	4	288	5
TAP	4	336	5
TAP	5	0	4
TAP	5	48	4
TAP	5	96	4
TAP	5	96	6
TAP	5	144	4
TAP	5	192	3
TAP	5	240	3
TAP	5	288	1
TAP	5	288	3
TAP	5	336	2
TAP	6	48	7
TAP	6	96	5
TAP	6	96	7
TAP	6	144	5
TAP	6	192	6
TAP	6	240	6
TAP	6	288	0
TAP	6	288	6
TAP	6	336	1
TAP	7	48	0
TAP	7	96	0
TAP	7	96	2
TAP	7	144	2
TAP	7	192	1
TAP	7	240	1
TAP	7	288	1
TAP	7	288	7
TAP	7	336	6
TAP	8	0	5
TAP	8	96	5
TAP	8	192	5
TAP	8	288	5
STR	8	336	5
SI_	8	336	5	96	240	1
TAP	9	48	0
TAP	9	96	7
TAP	9	144	6
TAP	9	192	5
TAP	9	240	4
TAP	9	288	3
TAP	9	336	2
TAP	10	48	0
TAP	10	96	0
TAP	10	144	1
TAP	10	192	1
TAP	10	240	2
TAP	10	288	2
TAP	10	312	3
TAP	10	336	2
TAP	10	360	1
HLD	11	0	0	192
TAP	11	144	3
HLD	11	192	3	192
TAP	12	48	7
TAP	12	96	7
TAP	12	144	6
TAP	12	192	6
TAP	12	240	5
TAP	12	288	5
TAP	12	312	4
TAP	12	336	5
TAP	12	360	6
STR	13	0	5
SCL	13	0	5	96	96	2
TAP	14	48	1
TAP	14	96	1
TAP	14	144	0
TAP	14	192	0
TAP	14	240	7
TAP	14	288	7
TAP	14	312	6
TAP	14	336	5
TAP	14	360	6
HLD	15	0	7	192
TAP	15	144	4
HLD	15	192	4	96
TAP	15	336	7
TAP	15	360	0
STR	16	0	2
SCR	16	0	2	96	96	5
STR	16	336	6
SI_	16	336	6	96	48	2
TAP	17	0	6
STR	17	144	1
SI_	17	144	1	96	48	5
TAP	17	192	1
TAP	18	48	7
TAP	18	72	6
TAP	18	96	7
TAP	18	144	0
TAP	18	168	7
TAP	18	192	0
TAP	18	240	1
TAP	18	288	1
TAP	18	312	2
TAP	18	336	1
TAP	18	360	0
HLD	19	0	7	144
HLD	19	144	0	240
HLD	19	192	3	192
TAP	20	48	0
TAP	20	72	1
TAP	20	96	0
TAP	20	144	7
TAP	20	168	0
TAP	20	192	7
TAP	20	240	6
TAP	20	288	6
TAP	20	312	5
TAP	20	336	4
TAP	20	360	5
STR	21	0	4
SCL	21	0	4	96	48	1
STR	21	192	0
SCL	21	192	0	96	48	5
TAP	22	48	3
TAP	22	72	4
TAP	22	96	5
TAP	22	144	2
TAP	22	168	3
TAP	22	192	4
TAP	22	240	1
TAP	22	264	2
TAP	22	288	3
TAP	22	312	4
TAP	22	336	3
TAP	22	360	2
HLD	23	0	1	144
HLD	23	144	3	144
HLD	23	192	4	192
TAP	23	336	6
TAP	23	360	6
HLD	24	0	6	192
TAP	24	144	1
TAP	24	168	1
HLD	24	192	1	144
STR	24	336	7
SI_	24	336	7	96	96	4
STR	24	360	0
SI_	24	360	0	96	96	3
TAP	25	0	7
TAP	26	0	0
TAP	26	0	1
TAP	26	96	0
TAP	26	96	7
TAP	26	192	6
TAP	26	192	7
STR	26	288	5
SI_	26	288	5	96	288	0
HLD	26	288	6	384
TAP	28	0	1
TAP	28	0	2
TAP	28	96	2
TAP	28	96	3
TAP	28	192	3
TAP	28	192	4
TAP	28	288	4
TAP	28	288	5
HLD	29	0	5	288
STR	29	0	6
SI_	29	0	6	96	192	3
TAP	30	0	6
TAP	30	0	7
TAP	30	96	0
TAP	30	96	7
TAP	30	192	0
TAP	30	192	1
HLD	30	288	1	384
STR	30	288	2
SI_	30	288	2	96	288	7
TAP	31	336	0
TAP	31	336	5
TAP	31	360	6
TAP	31	360	7
BRK	32	0	0
BRK	32	0	5
TAP	32	144	2
TAP	32	144	7
TAP	32	168	0
TAP	32	168	1
BRK	32	192	2
BRK	32	192	7
STR	32	336	0
SCR	32	336	0	96	528	3
STR	32	336	7
SCL	32	336	7	96	528	4
TAP	32	360	1
TAP	32	360	6
BRK	33	0	0
BRK	33	0	7
STR	35	0	0
SI_	35	0	0	96	24	4
STR	35	96	1
SI_	35	96	1	96	24	5
STR	35	192	2
SI_	35	192	2	96	24	6
STR	35	288	3
SI_	35	288	3	96	24	7
STR	36	0	2
SI_	36	0	2	96	24	6
STR	36	96	1
SI_	36	96	1	96	24	5
STR	36	192	0
SCR	36	192	0	96	48	3
TAP	37	48	5
TAP	37	72	4
TAP	37	96	3
TAP	37	144	2
TAP	37	168	3
TAP	37	192	4
TAP	37	240	7
TAP	37	264	6
TAP	37	288	5
TAP	37	336	0
TAP	37	360	1
STR	38	0	2
SCR	38	0	2	96	192	5
STR	39	0	0
SI_	39	0	0	96	24	4
STR	39	96	7
SI_	39	96	7	96	24	3
STR	39	192	0
SI_	39	192	0	96	24	5
STR	39	288	7
SI_	39	288	7	96	24	2
STR	40	0	0
SI_	40	0	0	96	24	4
STR	40	96	7
SI_	40	96	7	96	24	2
STR	40	192	1
SCL	40	192	1	96	48	6
TAP	41	0	2
TAP	41	48	3
TAP	41	96	5
TAP	41	144	4
TAP	41	192	1
TAP	41	240	0
TAP	41	288	7
TAP	41	336	6
STR	42	0	7
SI_	42	0	7	96	96	4
TAP	42	336	4
TAP	42	336	5
HLD	43	0	3	96
HLD	43	0	6	96
TAP	43	144	2
TAP	43	144	3
HLD	43	192	1	96
HLD	43	192	4	96
TAP	43	336	6
TAP	43	336	7
HLD	44	0	0	96
HLD	44	0	5	96
TAP	44	144	0
TAP	44	144	1
HLD	44	192	2	96
HLD	44	192	7	96
TAP	44	336	0
TAP	44	360	7
HLD	45	0	6	192
TAP	45	144	4
TAP	45	168	3
TAP	45	192	2
STR	45	288	0
SCL	45	288	0	96	384	5
STR	45	288	4
SCL	45	288	4	96	384	1
TAP	45	336	1
TAP	45	336	5
TAP	48	0	6
TAP	48	48	2
TAP	48	48	6
TAP	48	96	2
TAP	48	96	5
TAP	48	144	1
TAP	48	144	5
TAP	48	192	1
TAP	48	192	4
TAP	48	240	0
TAP	48	240	4
TAP	48	288	0
TAP	48	288	3
TAP	48	336	3
TAP	49	0	7
TAP	49	48	3
TAP	49	48	7
TAP	49	96	3
TAP	49	96	6
TAP	49	144	2
TAP	49	144	6
TAP	49	192	2
TAP	49	192	5
TAP	49	240	1
TAP	49	240	5
TAP	49	288	1
TAP	49	288	4
TAP	49	336	4
TAP	50	0	0
TAP	50	48	0
TAP	50	48	4
TAP	50	96	1
TAP	50	96	4
TAP	50	144	1
TAP	50	144	5
TAP	50	192	2
TAP	50	192	5
TAP	50	240	2
TAP	50	240	6
TAP	50	288	3
TAP	50	288	6
TAP	50	336	3
TAP	51	0	1
TAP	51	48	1
TAP	51	48	5
TAP	51	96	2
TAP	51	96	5
TAP	51	144	2
TAP	51	144	6
TAP	51	192	3
TAP	51	192	6
TAP	51	240	3
TAP	51	240	7
TAP	51	288	4
TAP	51	288	7
TAP	51	336	4
TAP	52	0	6
TAP	52	48	0
TAP	52	48	6
TAP	52	96	0
TAP	52	96	5
TAP	52	144	5
TAP	52	144	7
TAP	52	192	4
TAP	52	192	7
TAP	52	240	4
TAP	52	240	6
TAP	52	288	3
TAP	52	288	6
TAP	52	336	3
TAP	53	0	1
TAP	53	48	1
TAP	53	48	7
TAP	53	96	2
TAP	53	96	7
TAP	53	144	0
TAP	53	144	2
TAP	53	192	0
TAP	53	192	3
TAP	53	240	1
TAP	53	240	3
TAP	53	288	1
TAP	53	288	4
TAP	53	336	4
TAP	54	0	7
TAP	54	24	6
TAP	54	48	0
TAP	54	72	7
TAP	54	96	1
TAP	54	120	7
TAP	54	144	0
TAP	54	168	6
TAP	54	192	7
TAP	54	216	6
TAP	54	240	0
TAP	54	264	5
TAP	54	288	1
TAP	54	312	4
TAP	54	336	2
TAP	54	360	3
HLD	55	0	4	384

T_REC_TAP	312
T_REC_BRK	6
T_REC_XTP	0
T_REC_HLD	25
T_REC_XHO	0
T_REC_STR	33
T_REC_BST	0
T_REC_XST	0
T_REC_TTP	0
T_REC_THO	0
T_REC_SLD	33
T_REC_ALL	409
T_NUM_TAP	345
T_NUM_BRK	6
T_NUM_HLD	25
T_NUM_SLD	33
T_NUM_ALL	409
T_JUDGE_TAP	351
T_JUDGE_HLD	186
T_JUDGE_SLD	33
T_JUDGE_ALL	570
TTM_EACHPAIRS	80
TTM_SCR_TAP	172500
TTM_SCR_BRK	15600
TTM_SCR_HLD	25000
TTM_SCR_SLD	49500
TTM_SCR_ALL	262600
TTM_SCR_S	254150
TTM_SCR_SS	262000
TTM_RAT_ACV	10022

