VERSION	0.00.00	1.03.00
FES_MODE	0
BPM_DEF	108.000	108.000	108.000	108.000
MET_DEF	4	4
RESOLUTION	384
CLK_DEF	384
COMPATIBLE_CODE	MA2

BPM	0	0	108.000
MET	0	0	4	4

TAP	2	48	1
TAP	2	96	1
TAP	2	144	1
TAP	2	192	2
TAP	2	240	2
TAP	2	288	2
TAP	2	336	3
TAP	3	48	0
TAP	3	96	0
TAP	3	144	0
TAP	3	192	7
TAP	3	240	7
TAP	3	288	6
TAP	3	336	5
TAP	4	48	6
TAP	4	96	6
TAP	4	144	6
TAP	4	192	7
TAP	4	240	7
TAP	4	288	7
TAP	4	336	0
TAP	5	48	7
TAP	5	96	7
TAP	5	144	7
TAP	5	192	6
TAP	5	240	6
TAP	5	288	5
TAP	5	336	4
TAP	6	48	3
TAP	6	96	3
TAP	6	144	3
TAP	6	192	2
TAP	6	240	3
TAP	6	288	4
TAP	6	336	5
TAP	7	48	3
TAP	7	96	3
TAP	7	144	3
TAP	7	192	2
TAP	7	240	2
TAP	7	288	1
TAP	7	336	0
STR	8	0	7
SI_	8	0	7	96	48	4
TAP	8	288	0
BRK	8	336	0
TAP	10	48	1
TAP	10	96	1
TAP	10	144	1
TAP	10	192	2
TAP	10	240	2
TAP	10	288	2
TAP	10	336	3
HLD	11	0	4	192
HLD	11	192	5	192
TAP	12	48	7
TAP	12	96	7
TAP	12	144	7
TAP	12	192	6
TAP	12	240	6
TAP	12	288	5
TAP	12	336	4
HLD	13	0	3	288
TAP	14	48	4
TAP	14	96	4
TAP	14	144	4
TAP	14	192	5
TAP	14	240	5
TAP	14	288	6
TAP	14	336	7
HLD	15	0	0	192
HLD	15	192	1	192
HLD	16	0	7	192
HLD	16	192	5	192
HLD	17	0	3	192
HLD	17	192	1	192
BRK	18	0	0
TAP	18	48	7
TAP	18	96	7
TAP	18	144	7
TAP	18	192	6
TAP	18	240	6
TAP	18	288	5
TAP	18	336	4
HLD	19	0	3	192
HLD	19	192	2	192
TAP	20	48	3
TAP	20	96	3
TAP	20	144	3
TAP	20	192	4
TAP	20	240	4
TAP	20	288	5
TAP	20	336	6
HLD	21	0	7	288
TAP	22	48	0
TAP	22	96	0
TAP	22	144	0
TAP	22	192	1
TAP	22	240	1
TAP	22	288	2
TAP	22	336	3
HLD	23	0	4	192
HLD	23	192	6	96
TAP	24	0	5
TAP	24	96	5
TAP	24	192	3
TAP	24	288	3
TAP	25	0	0
TAP	25	0	1
TAP	25	96	0
TAP	25	96	7
TAP	25	192	6
TAP	25	192	7
TAP	25	288	5
TAP	25	288	6
HLD	26	0	7	96
HLD	26	96	0	96
HLD	26	192	1	96
HLD	26	288	2	384
HLD	28	0	0	96
HLD	28	96	6	96
HLD	28	192	4	96
HLD	28	288	3	96
HLD	29	0	2	288
HLD	30	0	3	96
HLD	30	96	4	96
HLD	30	192	5	96
HLD	30	288	6	384
STR	31	288	7
SI_	31	288	7	96	96	3
STR	32	96	0
SI_	32	96	0	96	96	4
STR	32	288	1
SI_	32	288	1	96	96	5
BRK	34	0	7
TAP	35	0	0
TAP	35	48	0
TAP	35	96	1
TAP	35	144	1
TAP	35	192	0
TAP	35	240	0
TAP	35	288	1
TAP	35	336	1
TAP	36	0	0
TAP	36	48	0
TAP	36	96	7
TAP	36	144	7
STR	36	192	6
SI_	36	192	6	96	96	1
TAP	37	48	2
TAP	37	96	2
TAP	37	144	2
TAP	37	192	3
TAP	37	240	3
TAP	37	288	4
TAP	37	336	5
HLD	38	0	6	288
TAP	39	0	7
TAP	39	48	7
TAP	39	96	6
TAP	39	144	6
TAP	39	192	7
TAP	39	240	7
TAP	39	288	6
TAP	39	336	6
TAP	40	0	7
TAP	40	48	7
TAP	40	96	0
TAP	40	144	0
STR	40	192	1
SI_	40	192	1	96	96	5
TAP	41	0	4
TAP	41	48	4
TAP	41	96	3
TAP	41	144	3
TAP	41	192	4
TAP	41	240	4
TAP	41	288	5
TAP	41	336	5
STR	42	0	6
SI_	42	0	6	96	96	1
STR	42	192	2
SI_	42	192	2	96	96	5
HLD	43	0	4	192
HLD	43	192	3	192
HLD	44	0	4	192
HLD	44	192	5	192
STR	45	0	6
SI_	45	0	6	96	96	2
STR	45	192	1
SI_	45	192	1	96	96	5
HLD	46	0	7	384
BRK	47	0	0
TAP	48	48	1
TAP	48	96	1
TAP	48	144	1
TAP	48	192	2
TAP	48	240	2
TAP	48	288	2
TAP	48	336	3
TAP	49	48	0
TAP	49	96	0
TAP	49	144	0
TAP	49	192	7
TAP	49	240	7
TAP	49	288	6
TAP	49	336	5
TAP	50	48	6
TAP	50	96	6
TAP	50	144	6
TAP	50	192	7
TAP	50	240	7
TAP	50	288	7
TAP	50	336	0
TAP	51	48	7
TAP	51	96	7
TAP	51	144	7
TAP	51	192	6
TAP	51	240	6
TAP	51	288	5
TAP	51	336	4
TAP	52	48	3
TAP	52	96	3
TAP	52	144	3
TAP	52	192	2
TAP	52	240	3
TAP	52	288	4
TAP	52	336	5
TAP	53	48	3
TAP	53	96	3
TAP	53	144	3
TAP	53	192	2
TAP	53	240	2
TAP	53	288	1
TAP	53	336	0
STR	54	0	7
SI_	54	0	7	96	96	4
BRK	55	0	0

T_REC_TAP	178
T_REC_BRK	5
T_REC_XTP	0
T_REC_HLD	33
T_REC_XHO	0
T_REC_STR	11
T_REC_BST	0
T_REC_XST	0
T_REC_TTP	0
T_REC_THO	0
T_REC_SLD	11
T_REC_ALL	238
T_NUM_TAP	189
T_NUM_BRK	5
T_NUM_HLD	33
T_NUM_SLD	11
T_NUM_ALL	238
T_JUDGE_TAP	194
T_JUDGE_HLD	260
T_JUDGE_SLD	11
T_JUDGE_ALL	465
TTM_EACHPAIRS	4
TTM_SCR_TAP	94500
TTM_SCR_BRK	13000
TTM_SCR_HLD	33000
TTM_SCR_SLD	16500
TTM_SCR_ALL	157000
TTM_SCR_S	151850
TTM_SCR_SS	156500
TTM_RAT_ACV	10031

