VERSION	0.00.00	1.03.00
FES_MODE	0
BPM_DEF	108.000	108.000	108.000	108.000
MET_DEF	4	4
RESOLUTION	384
CLK_DEF	384
COMPATIBLE_CODE	MA2

BPM	0	0	108.000
MET	0	0	4	4

TAP	2	96	0
TAP	2	192	0
TAP	2	288	0
TAP	3	96	1
TAP	3	192	1
TAP	3	288	1
TAP	4	96	0
TAP	4	192	0
TAP	4	288	0
TAP	5	96	7
TAP	5	192	7
TAP	5	288	7
TAP	6	96	6
TAP	6	192	6
TAP	6	288	6
TAP	7	96	5
TAP	7	192	5
TAP	7	288	5
BRK	9	0	0
TAP	10	96	1
TAP	10	288	1
TAP	11	96	2
TAP	11	288	2
TAP	12	96	1
TAP	12	288	1
TAP	13	96	0
TAP	13	288	0
TAP	14	96	7
TAP	14	288	7
TAP	15	96	6
TAP	15	288	6
TAP	16	96	7
STR	16	288	0
SI_	16	288	0	96	192	3
TAP	18	96	4
TAP	18	192	4
TAP	18	288	4
TAP	19	96	5
TAP	19	192	5
TAP	19	288	5
TAP	20	96	4
TAP	20	192	4
TAP	20	288	4
TAP	21	96	3
TAP	21	192	3
TAP	21	288	3
TAP	22	96	2
TAP	22	192	2
TAP	22	288	2
TAP	23	96	1
TAP	23	192	1
TAP	23	288	1
TAP	24	96	0
TAP	24	96	7
TAP	24	288	6
TAP	24	288	7
TAP	25	96	0
BRK	25	288	0
STR	26	0	1
SI_	26	0	1	96	192	6
TAP	27	96	6
TAP	27	288	6
STR	28	0	5
SI_	28	0	5	96	192	2
TAP	29	96	2
TAP	29	288	2
STR	30	0	1
SI_	30	0	1	96	192	6
TAP	31	96	6
TAP	31	288	6
HLD	32	0	5	96
HLD	32	192	4	96
TAP	33	0	7
TAP	33	96	7
TAP	33	192	0
BRK	33	288	0
TAP	35	0	0
TAP	35	96	0
TAP	35	96	1
TAP	35	192	0
TAP	35	288	0
TAP	35	288	7
TAP	36	0	0
TAP	36	96	0
TAP	36	96	1
TAP	36	192	1
TAP	36	192	2
HLD	37	0	3	96
HLD	37	192	4	96
HLD	38	0	5	288
TAP	39	0	4
TAP	39	96	3
TAP	39	96	4
TAP	39	192	4
TAP	39	288	4
TAP	39	288	5
TAP	40	0	4
TAP	40	96	3
HLD	40	192	2	96
HLD	41	0	3	288
HLD	42	0	4	288
STR	43	0	5
SI_	43	0	5	96	192	0
HLD	44	0	0	288
TAP	45	0	0
TAP	45	0	7
TAP	45	192	0
TAP	45	192	1
HLD	46	0	1	288
HLD	46	0	2	288
BRK	47	0	0
BRK	47	0	7
TAP	48	96	0
TAP	48	192	0
TAP	48	288	0
TAP	49	96	1
TAP	49	192	1
TAP	49	288	1
TAP	50	96	0
TAP	50	192	0
TAP	50	288	0
TAP	51	96	7
TAP	51	192	7
TAP	51	288	7
TAP	52	96	6
TAP	52	192	6
TAP	52	288	6
TAP	53	96	5
TAP	53	192	5
STR	53	288	5
SI_	53	288	5	96	192	0
HLD	55	0	0	672

T_REC_TAP	103
T_REC_BRK	5
T_REC_XTP	0
T_REC_HLD	12
T_REC_XHO	0
T_REC_STR	6
T_REC_BST	0
T_REC_XST	0
T_REC_TTP	0
T_REC_THO	0
T_REC_SLD	6
T_REC_ALL	132
T_NUM_TAP	109
T_NUM_BRK	5
T_NUM_HLD	12
T_NUM_SLD	6
T_NUM_ALL	132
T_JUDGE_TAP	114
T_JUDGE_HLD	120
T_JUDGE_SLD	6
T_JUDGE_ALL	240
TTM_EACHPAIRS	12
TTM_SCR_TAP	54500
TTM_SCR_BRK	13000
TTM_SCR_HLD	12000
TTM_SCR_SLD	9000
TTM_SCR_ALL	88500
TTM_SCR_S	85400
TTM_SCR_SS	88000
TTM_RAT_ACV	10056

