VERSION	0.00.00	1.03.00
FES_MODE	0
BPM_DEF	147.000	147.000	147.000	147.000
MET_DEF	4	4
RESOLUTION	384
CLK_DEF	384
COMPATIBLE_CODE	MA2

BPM	0	0	147.000
MET	0	0	4	4

TAP	2	0	0
TAP	2	96	2
TAP	2	144	4
TAP	2	240	6
TAP	2	336	0
TAP	2	336	1
STR	3	48	0
SI_	3	48	0	96	144	3
STR	3	48	1
SI_	3	48	1	96	144	5
TAP	4	0	7
TAP	4	96	5
TAP	4	144	3
TAP	4	240	1
TAP	4	336	6
TAP	4	336	7
STR	5	48	6
SI_	5	48	6	96	144	2
STR	5	48	7
SI_	5	48	7	96	144	4
TAP	6	0	3
TAP	6	96	1
TAP	6	144	5
TAP	6	240	0
TAP	6	240	4
TAP	6	336	1
TAP	6	336	5
TAP	7	48	2
TAP	7	48	6
TAP	7	144	3
TAP	7	144	7
HLD	7	240	4	96
STR	7	240	7
SCR	7	240	7	96	240	2
HLD	8	0	3	384
TAP	9	144	1
STR	9	192	1
SI_	9	192	1	96	48	5
TAP	10	0	0
TAP	10	96	2
TAP	10	144	4
TAP	10	240	6
TAP	10	288	7
TAP	10	336	0
TAP	11	48	7
TAP	11	96	5
TAP	11	144	3
HLD	11	192	1	96
TAP	11	336	6
TAP	11	360	7
TAP	12	0	6
TAP	12	96	7
TAP	12	144	0
TAP	12	240	0
TAP	12	240	1
TAP	12	336	7
STR	13	48	0
SI_	13	48	0	96	48	4
STR	13	96	6
SI_	13	96	6	96	48	3
TAP	13	336	1
TAP	13	360	2
STR	14	0	3
SI_	14	0	3	96	48	7
TAP	14	96	6
TAP	14	144	5
TAP	14	240	3
TAP	14	240	4
TAP	14	336	1
TAP	14	336	6
TAP	15	48	1
TAP	15	96	0
HLD	15	144	7	96
TAP	15	240	6
TAP	15	288	5
HLD	15	336	4	96
TAP	16	48	3
TAP	16	96	2
HLD	16	144	1	96
STR	16	240	2
SCL	16	240	2	96	336	7
TAP	18	0	7
TAP	18	48	6
TAP	18	96	5
TAP	18	144	4
TAP	18	192	5
TAP	18	240	4
TAP	18	288	3
TAP	18	336	2
TAP	19	0	3
TAP	19	48	4
TAP	19	96	5
TAP	19	144	4
TAP	19	192	5
TAP	19	240	6
TAP	19	288	7
TAP	19	336	0
TAP	20	0	0
TAP	20	48	2
TAP	20	96	4
TAP	20	144	6
TAP	20	192	7
TAP	20	240	5
TAP	20	288	3
TAP	20	336	1
TAP	21	0	0
TAP	21	48	1
TAP	21	96	2
TAP	21	144	3
TAP	21	192	4
TAP	21	240	5
TAP	21	288	6
TAP	21	336	7
HLD	22	0	1	48
TAP	22	48	2
HLD	22	96	6	48
TAP	22	144	5
HLD	22	192	1	48
TAP	22	240	0
HLD	22	288	6	48
TAP	22	336	7
HLD	23	0	2	48
TAP	23	48	3
HLD	23	96	4	48
TAP	23	144	5
HLD	23	192	5	48
TAP	23	240	4
HLD	23	288	3	48
TAP	23	336	2
HLD	24	0	0	144
HLD	24	144	1	96
STR	24	288	2
SCL	24	288	2	96	24	7
TAP	24	336	2
STR	25	0	5
SCR	25	0	5	96	24	0
BRK	25	144	1
HLD	26	0	7	96
TAP	26	72	6
TAP	26	96	6
TAP	26	144	5
HLD	26	192	1	96
TAP	26	264	2
TAP	26	288	2
TAP	26	336	3
HLD	27	0	5	96
TAP	27	72	4
TAP	27	96	4
TAP	27	144	3
HLD	27	192	7	96
TAP	27	264	0
TAP	27	288	0
TAP	27	336	1
TAP	28	0	1
TAP	28	72	3
TAP	28	96	3
TAP	28	144	5
TAP	28	192	6
TAP	28	264	0
TAP	28	288	0
TAP	28	336	2
TAP	29	0	1
TAP	29	72	7
TAP	29	96	7
TAP	29	144	5
STR	29	192	2
SI_	29	192	2	96	48	6
STR	29	240	6
SI_	29	240	6	96	48	3
HLD	30	0	1	96
TAP	30	72	2
TAP	30	96	2
TAP	30	144	3
HLD	30	192	6	96
TAP	30	264	5
TAP	30	288	5
TAP	30	336	4
HLD	31	0	0	96
TAP	31	72	7
TAP	31	96	7
TAP	31	144	1
TAP	31	144	6
STR	31	192	5
SI_	31	192	5	96	48	1
STR	31	240	1
SI_	31	240	1	96	48	4
HLD	32	0	3	144
HLD	32	144	4	240
BRK	33	0	6
BRK	33	72	7
BRK	33	144	0
STR	34	0	2
SI_	34	0	2	96	48	5
STR	34	96	1
SI_	34	96	1	96	48	5
STR	34	192	0
SCL	34	192	0	96	48	5
STR	35	0	0
SI_	35	0	0	96	48	3
STR	35	96	7
SI_	35	96	7	96	48	3
STR	35	192	6
SCL	35	192	6	96	48	3
HLD	36	0	2	96
TAP	36	96	3
HLD	36	192	2	96
TAP	36	288	4
HLD	37	0	5	96
TAP	37	96	6
HLD	37	192	5	96
TAP	37	288	7
TAP	38	0	0
TAP	38	0	1
TAP	38	96	2
TAP	38	96	3
TAP	38	192	4
TAP	38	192	5
TAP	38	288	6
TAP	38	288	7
TAP	39	0	0
TAP	39	0	4
TAP	39	96	3
TAP	39	96	7
TAP	39	192	2
TAP	39	192	6
TAP	39	288	1
TAP	39	288	5
STR	40	0	2
SCL	40	0	2	96	48	7
STR	40	192	5
SCR	40	192	5	96	48	0
TAP	41	0	0
TAP	41	48	1
TAP	41	96	2
TAP	41	144	3
TAP	41	192	4
TAP	41	240	5
TAP	41	288	6
TAP	41	336	7
STR	42	0	0
SCR	42	0	0	96	48	3
STR	42	96	6
SCL	42	96	6	96	48	3
STR	42	192	7
SI_	42	192	7	96	48	3
STR	43	0	7
SCL	43	0	7	96	48	4
STR	43	96	1
SCR	43	96	1	96	48	4
STR	43	192	0
SI_	43	192	0	96	48	4
HLD	44	0	3	96
HLD	44	96	1	96
HLD	44	192	7	96
HLD	44	288	5	96
HLD	45	0	2	96
HLD	45	96	4	96
HLD	45	192	7	96
HLD	45	288	0	96
TAP	46	0	7
TAP	46	96	0
TAP	46	96	2
TAP	46	192	1
TAP	46	192	6
TAP	46	288	3
TAP	46	288	4
TAP	47	0	5
TAP	47	0	6
TAP	47	96	0
TAP	47	96	2
TAP	47	192	6
TAP	47	192	7
TAP	47	288	5
TAP	47	288	6
TAP	48	0	2
TAP	48	0	3
TAP	48	96	4
TAP	48	96	6
TAP	48	192	0
TAP	48	192	1
TAP	48	288	1
TAP	48	288	5
TAP	48	336	3
TAP	48	336	6
TAP	49	24	0
TAP	49	24	4
TAP	49	72	1
TAP	49	72	5
HLD	49	120	2	120
HLD	49	120	6	120
TAP	49	288	3
TAP	49	288	7
TAP	49	312	2
TAP	49	312	6
TAP	49	336	1
TAP	49	336	5
BRK	49	360	0
BRK	49	360	4
STR	50	0	3
SCR	50	0	3	96	48	6
TAP	50	48	2
TAP	50	96	1
TAP	50	144	0
TAP	50	192	7
TAP	50	240	6
TAP	50	288	5
STR	51	0	6
SCL	51	0	6	96	48	3
TAP	51	48	7
TAP	51	96	0
TAP	51	144	1
TAP	51	192	2
TAP	51	240	3
TAP	51	288	4
STR	52	0	0
SI_	52	0	0	96	96	4
TAP	52	48	2
TAP	52	96	1
TAP	52	144	0
TAP	52	192	7
TAP	52	240	6
TAP	52	288	5
STR	53	0	4
SI_	53	0	4	96	96	0
TAP	53	48	1
TAP	53	96	2
TAP	53	144	3
TAP	53	192	4
TAP	53	240	5
TAP	53	288	6
HLD	54	0	2	144
TAP	54	0	6
TAP	54	48	6
TAP	54	96	0
TAP	54	144	0
HLD	54	192	3	144
TAP	54	192	7
TAP	54	240	7
TAP	54	288	1
TAP	54	336	1
TAP	55	0	0
HLD	55	0	4	144
TAP	55	48	0
TAP	55	96	6
TAP	55	144	6
HLD	55	192	5	144
TAP	55	192	7
TAP	55	240	7
TAP	55	288	1
TAP	55	336	1
HLD	56	0	1	192
TAP	56	48	2
TAP	56	96	3
TAP	56	144	4
HLD	56	192	5	192
TAP	56	240	6
TAP	56	288	7
TAP	56	336	0
HLD	57	0	1	192
TAP	57	48	0
TAP	57	96	7
TAP	57	144	6
HLD	57	192	5	192
TAP	57	240	4
TAP	57	288	3
TAP	57	336	2
STR	58	0	0
SCL	58	0	0	96	96	5
TAP	58	48	2
TAP	58	96	1
TAP	58	144	0
TAP	58	192	7
TAP	58	240	6
TAP	58	288	5
TAP	58	336	4
STR	59	0	3
SCR	59	0	3	96	48	6
STR	59	48	6
SI_	59	48	6	96	48	2
STR	59	192	1
SCL	59	192	1	96	48	6
STR	59	240	6
SCL	59	240	6	96	48	3
STR	60	0	1
SI_	60	0	1	96	48	4
TAP	60	96	1
STR	60	192	7
SI_	60	192	7	96	48	3
TAP	60	288	7
TAP	61	0	0
TAP	61	0	1
TAP	61	96	4
TAP	61	96	5
TAP	61	192	6
TAP	61	192	7
TAP	61	288	2
TAP	61	288	3
TAP	62	0	0
HLD	62	48	0	96
HLD	62	144	4	96
HLD	62	240	2	96
HLD	62	336	6	96
HLD	63	48	3	96
HLD	63	144	1	96
HLD	63	240	7	96
HLD	63	336	0	624
HLD	64	336	7	240
TAP	65	240	1
TAP	65	288	0
BRK	65	336	7
STR	66	0	6
SI_	66	0	6	96	48	2
TAP	66	96	6
TAP	66	192	1
TAP	66	192	5
STR	66	240	2
SCR	66	240	2	96	48	5
STR	66	240	6
SCR	66	240	6	96	48	1
TAP	67	48	2
TAP	67	48	6
TAP	67	96	3
TAP	67	96	7
TAP	67	144	0
TAP	67	144	4
HLD	67	192	1	96
HLD	67	192	5	96
STR	68	0	0
SCL	68	0	0	96	48	5
TAP	68	96	0
TAP	68	192	1
STR	68	240	2
SI_	68	240	2	96	48	5
STR	68	336	2
SI_	68	336	2	96	48	6
STR	69	48	2
SCL	69	48	2	96	48	7
STR	70	0	0
SI_	70	0	0	96	48	4
TAP	70	96	0
TAP	70	192	4
TAP	70	192	5
TAP	70	240	0
TAP	70	240	6
TAP	70	336	2
TAP	71	0	0
TAP	71	48	6
TAP	71	144	5
TAP	71	192	3
TAP	71	240	1
TAP	71	336	0
STR	72	0	0
SI_	72	0	0	96	48	3
STR	72	0	4
SI_	72	0	4	96	48	7
STR	72	192	2
SI_	72	192	2	96	48	5
STR	72	192	6
SI_	72	192	6	96	48	1
STR	73	0	0
SI_	73	0	0	96	48	5
STR	73	0	4
SI_	73	0	4	96	48	1
STR	73	192	2
SI_	73	192	2	96	48	7
STR	73	192	6
SI_	73	192	6	96	48	3
STR	74	0	6
SI_	74	0	6	96	48	2
TAP	74	192	3
TAP	74	192	6
TAP	74	240	0
TAP	74	240	1
TAP	74	336	6
TAP	74	336	7
TAP	75	48	1
TAP	75	48	4
HLD	75	192	5	96
TAP	75	288	4
TAP	76	0	3
TAP	76	0	6
TAP	76	96	2
TAP	76	96	7
TAP	76	144	0
TAP	76	144	1
TAP	76	240	6
TAP	76	336	7
STR	77	48	0
SCL	77	48	0	96	144	5
TAP	77	96	1
TAP	78	0	7
HLD	78	48	7	96
HLD	78	144	3	96
HLD	78	240	5	96
HLD	78	336	1	96
HLD	79	48	4	96
HLD	79	144	6	96
HLD	79	240	0	96
HLD	79	336	7	720
HLD	80	336	0	336

T_REC_TAP	307
T_REC_BRK	7
T_REC_XTP	0
T_REC_HLD	68
T_REC_XHO	0
T_REC_STR	59
T_REC_BST	0
T_REC_XST	0
T_REC_TTP	0
T_REC_THO	0
T_REC_SLD	59
T_REC_ALL	500
T_NUM_TAP	366
T_NUM_BRK	7
T_NUM_HLD	68
T_NUM_SLD	59
T_NUM_ALL	500
T_JUDGE_TAP	373
T_JUDGE_HLD	185
T_JUDGE_SLD	59
T_JUDGE_ALL	617
TTM_EACHPAIRS	67
TTM_SCR_TAP	183000
TTM_SCR_BRK	18200
TTM_SCR_HLD	68000
TTM_SCR_SLD	88500
TTM_SCR_ALL	357700
TTM_SCR_S	346300
TTM_SCR_SS	357000
TTM_RAT_ACV	10019

