VERSION	0.00.00	1.03.00
FES_MODE	0
BPM_DEF	147.000	147.000	147.000	147.000
MET_DEF	4	4
RESOLUTION	384
CLK_DEF	384
COMPATIBLE_CODE	MA2

BPM	0	0	147.000
MET	0	0	4	4

TAP	2	96	1
TAP	2	288	1
TAP	3	96	0
TAP	3	288	0
TAP	4	96	1
TAP	4	288	1
TAP	5	96	2
TAP	5	288	2
TAP	6	96	1
TAP	6	288	1
TAP	7	96	0
STR	7	288	0
SCR	7	288	0	96	192	3
STR	7	288	7
SCL	7	288	7	96	192	4
TAP	10	0	0
TAP	10	96	0
TAP	10	144	1
TAP	10	240	0
TAP	10	336	6
TAP	10	336	7
TAP	11	48	5
TAP	11	48	6
STR	11	144	4
SCL	11	144	4	96	96	1
HLD	11	144	5	144
TAP	12	0	3
TAP	12	96	3
TAP	12	144	2
TAP	12	240	3
TAP	12	336	4
TAP	12	336	5
TAP	13	48	6
TAP	13	48	7
HLD	13	144	0	144
STR	13	144	1
SCR	13	144	1	96	96	4
TAP	14	0	7
TAP	14	96	7
TAP	14	144	6
TAP	14	240	0
TAP	14	336	1
TAP	15	48	1
TAP	15	96	2
HLD	15	144	1	96
TAP	15	240	0
HLD	15	336	6	96
TAP	16	48	5
TAP	16	96	4
HLD	16	144	5	192
TAP	16	240	6
HLD	16	336	0	336
TAP	18	0	0
TAP	18	96	1
TAP	18	192	0
TAP	18	240	0
TAP	18	336	6
TAP	18	336	7
TAP	19	48	5
TAP	19	48	6
HLD	19	144	7	144
TAP	19	240	6
TAP	19	288	6
TAP	20	0	1
TAP	20	96	2
TAP	20	192	3
TAP	20	240	3
TAP	20	336	4
TAP	20	336	5
TAP	21	48	2
TAP	21	48	3
HLD	21	144	5	144
TAP	21	240	4
TAP	21	288	4
TAP	22	0	0
TAP	22	0	7
TAP	22	96	6
TAP	22	96	7
TAP	22	192	0
TAP	22	240	0
HLD	22	336	1	96
HLD	23	48	3	96
HLD	23	144	5	144
BRK	23	288	6
STR	24	0	0
SI_	24	0	0	96	96	3
STR	24	0	7
SI_	24	0	7	96	96	4
TAP	25	0	2
TAP	25	0	3
TAP	25	72	4
TAP	25	72	5
TAP	25	144	0
TAP	25	144	7
TAP	26	0	6
TAP	26	0	7
TAP	26	48	5
HLD	26	96	4	96
TAP	26	192	0
TAP	26	240	1
HLD	26	288	2	96
TAP	27	0	7
TAP	27	48	6
HLD	27	96	5	96
TAP	27	192	1
TAP	27	240	2
TAP	27	288	3
TAP	28	0	6
TAP	28	0	7
TAP	28	48	5
HLD	28	96	4	96
TAP	28	192	0
TAP	28	240	1
TAP	28	288	2
HLD	28	288	3	96
TAP	29	0	7
TAP	29	48	6
HLD	29	96	4	96
TAP	29	96	5
TAP	29	192	1
TAP	29	240	2
TAP	29	288	3
STR	30	0	1
SI_	30	0	1	96	48	4
STR	30	192	6
SI_	30	192	6	96	48	3
STR	30	336	5
SI_	30	336	5	96	48	0
STR	31	48	2
SI_	31	48	2	96	48	7
STR	31	144	6
SCR	31	144	6	96	48	1
HLD	32	0	0	144
HLD	32	144	1	144
TAP	33	0	0
TAP	33	0	7
TAP	33	72	1
TAP	33	72	5
BRK	33	144	2
BRK	33	144	6
HLD	34	0	5	72
TAP	34	72	4
TAP	34	96	5
HLD	34	192	2	72
TAP	34	264	3
TAP	34	288	2
HLD	35	0	5	72
TAP	35	72	3
TAP	35	96	5
HLD	35	192	2	72
TAP	35	264	4
TAP	35	288	2
HLD	36	0	6	72
TAP	36	72	7
TAP	36	96	5
HLD	36	192	1	72
TAP	36	264	0
TAP	36	288	2
HLD	37	0	6	72
TAP	37	72	0
TAP	37	96	7
HLD	37	192	1	72
TAP	37	264	7
TAP	37	288	0
TAP	38	0	6
STR	38	96	6
SI_	38	96	6	96	48	2
TAP	38	192	7
STR	38	288	7
SI_	38	288	7	96	48	3
TAP	39	0	0
STR	39	96	0
SI_	39	96	0	96	48	4
TAP	39	192	1
STR	39	288	1
SI_	39	288	1	96	48	5
TAP	40	0	0
STR	40	96	0
SI_	40	96	0	96	48	4
TAP	40	192	7
STR	40	288	7
SI_	40	288	7	96	48	3
TAP	41	0	6
STR	41	96	6
SI_	41	96	6	96	48	2
BRK	41	192	7
BRK	41	288	0
HLD	42	0	4	72
TAP	42	72	3
TAP	42	96	5
TAP	42	144	5
HLD	42	192	3	72
TAP	42	264	4
TAP	42	288	2
TAP	42	336	2
HLD	43	0	7	72
TAP	43	72	0
TAP	43	96	6
TAP	43	144	6
HLD	43	192	0	72
TAP	43	264	7
TAP	43	288	1
TAP	43	336	1
HLD	44	0	5	72
TAP	44	72	4
TAP	44	96	6
TAP	44	144	6
HLD	44	192	2	72
TAP	44	264	3
TAP	44	288	1
TAP	44	336	1
HLD	45	0	6	72
TAP	45	72	0
TAP	45	96	5
TAP	45	144	5
HLD	45	192	1	72
TAP	45	264	0
TAP	45	288	2
TAP	45	336	2
TAP	46	0	1
TAP	46	96	0
TAP	46	96	7
TAP	46	192	1
TAP	46	240	3
TAP	46	288	2
TAP	46	288	3
TAP	47	0	4
TAP	47	96	5
TAP	47	96	6
TAP	47	192	7
TAP	47	240	6
TAP	47	288	5
STR	47	336	6
SCR	47	336	6	96	96	1
TAP	48	288	0
TAP	48	288	7
BRK	48	336	6
BRK	48	336	7
TAP	50	0	1
TAP	50	48	2
TAP	50	96	1
TAP	50	192	1
TAP	50	240	0
TAP	50	288	1
TAP	51	0	1
TAP	51	48	2
TAP	51	96	3
TAP	51	192	1
TAP	51	240	0
BRK	51	288	0
TAP	52	0	6
STR	52	0	7
SCR	52	0	7	96	48	2
TAP	52	192	0
TAP	52	264	7
HLD	52	336	6	336
TAP	53	240	7
BRK	53	288	7
TAP	54	0	6
TAP	54	48	5
TAP	54	96	6
TAP	54	192	6
TAP	54	240	7
TAP	54	288	6
TAP	55	0	6
TAP	55	48	5
TAP	55	96	4
TAP	55	192	6
TAP	55	240	7
BRK	55	288	7
TAP	56	0	0
TAP	56	0	1
TAP	56	96	2
TAP	56	96	3
TAP	56	168	1
TAP	56	192	0
STR	56	240	7
SI_	56	240	7	96	48	3
STR	56	336	0
SI_	56	336	0	96	48	4
TAP	57	240	0
BRK	57	288	0
TAP	58	0	7
TAP	58	48	5
TAP	58	96	3
TAP	58	192	5
TAP	58	240	7
TAP	58	288	1
TAP	59	0	2
TAP	59	48	4
TAP	59	96	6
TAP	59	192	4
TAP	59	240	2
BRK	59	288	0
STR	60	0	6
SI_	60	0	6	96	48	3
TAP	60	96	0
STR	60	144	2
SI_	60	144	2	96	48	7
HLD	60	336	6	96
TAP	61	48	5
TAP	61	96	3
HLD	61	144	1	144
TAP	61	240	0
BRK	61	288	0
TAP	62	0	1
TAP	62	48	1
HLD	62	144	2	96
HLD	62	240	3	97
HLD	62	336	5	96
HLD	63	48	7	96
HLD	63	144	1	96
STR	63	240	2
SI_	63	240	2	96	192	7
HLD	63	336	6	384
BRK	64	336	5
TAP	65	240	0
TAP	65	288	1
TAP	65	336	2
STR	66	0	3
SI_	66	0	3	96	48	7
TAP	66	96	6
HLD	66	192	6	72
TAP	66	264	0
STR	66	336	7
SI_	66	336	7	96	96	3
HLD	67	144	2	96
TAP	67	240	4
TAP	67	288	5
TAP	67	336	6
STR	68	0	7
SCL	68	0	7	96	48	4
HLD	68	192	2	72
TAP	68	264	0
HLD	68	336	6	336
TAP	69	240	2
BRK	69	288	2
TAP	70	0	0
TAP	70	0	2
TAP	70	96	1
TAP	70	96	3
TAP	70	192	0
TAP	70	264	6
HLD	70	336	4	240
STR	71	192	3
SI_	71	192	3	96	48	7
BRK	71	288	1
TAP	72	0	0
TAP	72	0	1
TAP	72	96	2
TAP	72	96	3
TAP	72	168	0
STR	72	193	7
SI_	72	193	7	96	47	3
STR	72	336	0
SI_	72	336	0	96	48	4
TAP	73	240	1
BRK	73	288	1
STR	74	0	6
SCL	74	0	6	96	48	3
TAP	74	192	7
TAP	74	264	0
HLD	74	336	1	240
TAP	75	48	2
HLD	75	192	0	96
HLD	75	288	7	96
STR	76	0	6
SCL	76	0	6	96	48	3
STR	76	144	7
SCR	76	144	7	96	48	2
HLD	76	336	1	96
STR	77	48	2
SCL	77	48	2	96	48	7
TAP	77	96	3
BRK	77	240	6
BRK	77	288	6
TAP	78	0	0
TAP	78	48	0
HLD	78	144	1	96
HLD	78	240	2	97
HLD	78	336	4	96
HLD	79	48	6	96
HLD	79	144	0	96
STR	79	240	2
SI_	79	240	2	96	192	7
HLD	79	336	6	384
STR	80	336	5
SCL	80	336	5	96	240	2

T_REC_TAP	236
T_REC_BRK	19
T_REC_XTP	0
T_REC_HLD	59
T_REC_XHO	0
T_REC_STR	37
T_REC_BST	0
T_REC_XST	0
T_REC_TTP	0
T_REC_THO	0
T_REC_SLD	37
T_REC_ALL	388
T_NUM_TAP	273
T_NUM_BRK	19
T_NUM_HLD	59
T_NUM_SLD	37
T_NUM_ALL	388
T_JUDGE_TAP	292
T_JUDGE_HLD	163
T_JUDGE_SLD	37
T_JUDGE_ALL	492
TTM_EACHPAIRS	36
TTM_SCR_TAP	136500
TTM_SCR_BRK	49400
TTM_SCR_HLD	59000
TTM_SCR_SLD	55500
TTM_SCR_ALL	300400
TTM_SCR_S	289550
TTM_SCR_SS	298500
TTM_RAT_ACV	10063

