VERSION	0.00.00	1.03.00
FES_MODE	0
BPM_DEF	147.000	147.000	147.000	147.000
MET_DEF	4	4
RESOLUTION	384
CLK_DEF	384
COMPATIBLE_CODE	MA2

BPM	0	0	147.000
MET	0	0	4	4

TAP	2	0	1
TAP	2	96	2
TAP	2	288	1
TAP	3	96	0
TAP	3	288	7
TAP	4	0	5
TAP	4	96	6
TAP	4	288	5
TAP	5	96	4
TAP	5	288	3
TAP	6	0	0
TAP	6	0	7
TAP	6	96	0
TAP	6	96	7
TAP	6	288	0
TAP	6	288	1
TAP	7	96	6
TAP	7	96	7
TAP	7	288	2
TAP	7	288	5
HLD	8	0	0	672
HLD	8	0	7	672
TAP	10	0	0
TAP	10	96	1
HLD	10	192	0	96
TAP	11	0	0
TAP	11	96	7
HLD	11	192	6	96
TAP	12	0	7
TAP	12	96	6
HLD	12	192	7	96
TAP	13	0	7
TAP	13	96	0
HLD	13	192	1	96
TAP	14	0	0
TAP	14	96	6
TAP	14	96	7
TAP	14	192	4
TAP	14	192	5
TAP	15	0	2
TAP	15	96	3
TAP	15	96	4
TAP	15	192	5
TAP	15	192	6
HLD	16	0	6	96
TAP	16	96	7
HLD	16	192	1	96
STR	16	288	0
SCL	16	288	0	96	288	5
HLD	18	0	2	96
TAP	18	96	4
HLD	18	192	5	96
TAP	18	288	3
TAP	19	0	1
TAP	19	96	0
HLD	19	192	7	96
HLD	20	0	6	96
TAP	20	96	4
HLD	20	192	1	96
TAP	20	288	3
TAP	21	0	6
TAP	21	96	7
HLD	21	192	0	96
STR	22	0	7
SCR	22	0	7	96	192	2
STR	23	0	0
SCL	23	0	0	96	192	5
HLD	24	0	5	288
TAP	24	96	2
TAP	24	288	2
TAP	25	0	1
TAP	25	72	6
BRK	25	144	0
BRK	25	144	7
HLD	26	0	6	96
TAP	26	96	4
HLD	26	192	1	96
TAP	26	288	3
TAP	27	0	6
TAP	27	96	7
HLD	27	192	0	96
HLD	28	0	2	96
TAP	28	96	4
HLD	28	192	5	96
TAP	28	288	3
TAP	29	0	1
TAP	29	96	0
HLD	29	192	7	96
HLD	30	0	2	288
TAP	30	96	3
TAP	30	288	3
HLD	31	0	5	288
TAP	31	96	4
TAP	31	288	4
HLD	32	0	1	144
HLD	32	144	5	144
TAP	32	288	4
TAP	33	0	0
TAP	33	0	7
TAP	33	72	0
TAP	33	72	7
BRK	33	144	1
BRK	33	144	6
TAP	34	0	2
TAP	34	96	3
STR	34	192	2
SI_	34	192	2	96	96	5
TAP	35	0	4
TAP	35	96	5
STR	35	192	4
SI_	35	192	4	96	96	7
TAP	36	0	2
TAP	36	96	4
STR	36	192	3
SI_	36	192	3	96	96	0
TAP	37	0	1
TAP	37	96	0
STR	37	192	7
SCR	37	192	7	96	96	2
HLD	38	0	0	96
TAP	38	96	1
HLD	38	192	7	96
TAP	38	288	6
HLD	39	0	1	96
TAP	39	96	2
HLD	39	192	6	96
TAP	39	288	5
STR	40	0	0
SI_	40	0	0	96	96	3
STR	40	192	7
SI_	40	192	7	96	96	4
STR	41	0	0
SI_	41	0	0	96	96	4
STR	41	192	7
SI_	41	192	7	96	96	3
TAP	42	0	2
TAP	42	96	3
TAP	42	192	2
TAP	42	288	2
TAP	42	288	3
TAP	43	0	5
TAP	43	96	4
TAP	43	192	5
TAP	43	288	4
TAP	43	288	5
TAP	44	0	1
TAP	44	96	0
TAP	44	192	7
TAP	44	288	6
TAP	44	288	7
TAP	45	0	6
TAP	45	96	7
TAP	45	192	0
TAP	45	288	0
TAP	45	288	1
HLD	46	0	2	288
TAP	46	96	3
TAP	46	288	3
HLD	47	0	5	288
TAP	47	96	4
TAP	47	288	4
STR	48	0	0
SCL	48	0	0	96	288	5
TAP	49	192	7
BRK	49	288	7
TAP	50	0	4
TAP	50	96	4
TAP	50	96	5
TAP	50	192	1
TAP	50	240	2
TAP	50	288	3
TAP	51	0	2
TAP	51	96	2
TAP	51	96	3
TAP	51	192	6
TAP	51	240	7
TAP	51	288	0
TAP	52	0	2
TAP	52	96	4
TAP	52	96	5
TAP	52	192	2
TAP	52	240	3
TAP	52	288	2
TAP	53	0	5
TAP	53	96	2
TAP	53	96	3
TAP	53	192	5
TAP	53	240	4
BRK	53	288	5
HLD	54	0	2	288
TAP	54	96	1
TAP	54	192	0
TAP	54	288	7
HLD	55	0	6	288
TAP	55	96	5
TAP	55	192	4
TAP	55	288	3
STR	56	0	2
SI_	56	0	2	96	96	5
STR	56	192	0
SI_	56	192	0	96	96	3
STR	57	0	6
SI_	57	0	6	96	96	1
STR	57	192	7
SI_	57	192	7	96	96	4
TAP	58	0	1
TAP	58	96	0
TAP	58	96	1
TAP	58	192	7
TAP	58	240	6
TAP	58	288	7
TAP	59	0	5
TAP	59	96	4
TAP	59	96	5
TAP	59	192	2
TAP	59	240	3
TAP	59	288	2
HLD	60	0	6	96
TAP	60	96	5
HLD	60	192	1	96
TAP	60	288	2
STR	61	0	0
SI_	61	0	0	96	96	3
STR	61	192	7
SI_	61	192	7	96	96	4
TAP	62	0	5
TAP	62	96	6
TAP	62	192	7
TAP	62	288	0
TAP	63	0	1
TAP	63	96	2
TAP	63	192	3
TAP	63	288	4
HLD	64	0	6	96
TAP	64	96	7
HLD	64	192	1	96
STR	64	288	0
SCL	64	288	0	96	288	5
TAP	66	0	1
TAP	66	48	0
TAP	66	96	1
TAP	66	144	0
TAP	66	192	1
TAP	66	240	0
TAP	66	288	0
TAP	66	288	1
TAP	67	0	6
TAP	67	48	7
TAP	67	96	6
TAP	67	144	7
TAP	67	192	6
TAP	67	240	7
TAP	67	288	6
TAP	67	288	7
TAP	68	0	2
TAP	68	48	3
TAP	68	96	2
TAP	68	144	3
TAP	68	192	2
TAP	68	240	3
TAP	68	288	2
TAP	68	288	3
TAP	69	0	4
TAP	69	48	5
TAP	69	96	4
TAP	69	144	5
TAP	69	192	4
TAP	69	240	5
TAP	69	288	4
TAP	69	288	5
HLD	70	0	6	288
TAP	70	96	7
TAP	70	192	0
TAP	70	288	1
HLD	71	0	2	288
TAP	71	96	1
TAP	71	192	0
TAP	71	288	7
STR	72	0	7
SI_	72	0	7	96	96	4
STR	72	192	2
SI_	72	192	2	96	96	5
TAP	73	0	3
TAP	73	96	2
TAP	73	96	5
TAP	73	192	1
TAP	73	192	6
BRK	73	288	0
BRK	73	288	7
TAP	74	0	0
TAP	74	96	1
TAP	74	192	6
TAP	74	240	7
TAP	74	288	6
TAP	74	288	7
TAP	75	0	4
TAP	75	96	5
TAP	75	192	2
TAP	75	240	3
TAP	75	288	2
TAP	75	288	3
HLD	76	0	1	96
TAP	76	96	2
HLD	76	192	6	96
TAP	76	288	5
STR	77	0	1
SI_	77	0	1	96	96	5
STR	77	192	7
SI_	77	192	7	96	96	3
TAP	78	0	0
TAP	78	96	0
TAP	78	96	1
TAP	78	288	6
TAP	78	288	7
TAP	79	96	2
TAP	79	96	3
TAP	79	288	4
TAP	79	288	5
HLD	80	0	5	288
TAP	80	96	7
TAP	80	192	7
STR	80	288	7
SCR	80	288	7	96	288	2

T_REC_TAP	225
T_REC_BRK	8
T_REC_XTP	0
T_REC_HLD	42
T_REC_XHO	0
T_REC_STR	24
T_REC_BST	0
T_REC_XST	0
T_REC_TTP	0
T_REC_THO	0
T_REC_SLD	24
T_REC_ALL	323
T_NUM_TAP	249
T_NUM_BRK	8
T_NUM_HLD	42
T_NUM_SLD	24
T_NUM_ALL	323
T_JUDGE_TAP	257
T_JUDGE_HLD	150
T_JUDGE_SLD	24
T_JUDGE_ALL	431
TTM_EACHPAIRS	37
TTM_SCR_TAP	124500
TTM_SCR_BRK	20800
TTM_SCR_HLD	42000
TTM_SCR_SLD	36000
TTM_SCR_ALL	223300
TTM_SCR_S	215850
TTM_SCR_SS	222500
TTM_RAT_ACV	10035

